Ссылка на приватное зеркало нашего сайта всего за 1$. Внимание количество ограничено!!!

2 сезон

iTunes

1 сезон

1

2 сезон

2 сезон

iTunes

1 сезон

RePack

30

Ultimate

ВАЖНО

ИГРА 18+

pack

RePack

MK11
pack

Забери бонус

RePack

jed

!!Акция!!

Alien_Rage

RePack

fifa19

RePack

Assassins Creed: Odyssey

RePack

NEED FOR SPEED™ PAYBACK

4 сезон

9 сезон

Бесстыжие 9 сезон

Все сериалы

все сериалы на PB.wtf

RePack

FAR CRY 5
  

Охота за мертвецом / Prey for Death (Рене Перез ) [2015, вестерн, BD Remux, VOx2] pb.wtf

Охота за мертвецом через торрент pb.wtf

Размер: 15.01 GB | Добавлен: 5 лет 5 мес. назад | Торрент скачан:26 раз
Скачать  

25-06-2015 14:16 Охота за мертвецом Скачать торрент  


Охота за мертвецом / Prey for Death


ИНФОРМАЦИЯ:
Год выпуска: 2015
Страна: США
Жанр: вестерн
Продолжительность: 01:20:11
Перевод: Любительский (одноголосый)[datynet] [Xixidok]
Субтитры: русские (xixidok), Dutch,
Режиссер: Рене Перез

В Ролях:


Коннор Триннир (Chamberlain), Robert Koroluck (Baron Emerson), Надия Ланфранкони (Maria), Jay Kwon (Kowloon), Лея Перес (Leia), Kaula Reed (Orphanage Lady), Хареф Топет (Bandit)

Описание:
Барон Эмерсон использует свое огромное богатство, чтобы путешествовать по миру и охотится. Он не охотиться на животных, он охотится на людей. Барон прибывает на американскую границу для поиска своей следующей добычи. Там он находит преступника, стрелка по имени Чемберлин, который находится в тюрьме и приговорен к повешиванию. Барон организует Чемберлину свободу, чтобы он смог охотится на него как на зверя в этой кровавой игре на выживание на Диком Западе.

  • Мировая премьера:6 марта 2015

    ТЕХ.ДАННЫЕ:
    Качество: BD Remux
    Формат: MKV
    Видео кодек: AVC
    Аудио кодек: DTS, DTS-HD
    Видео: AVC, 1920x1080 (16:9), 22395 kbps, 23,976 fps, 0,450 bpp
    Аудио №1: русский / DTS / 5.1 / 48 kHz / 1510 kbps / 24 bit || datynet
    Аудио №2: русский / DTS / 5.1 / 48 kHz / 1152 kbps / 16 bit || xixidok
    Аудио №3: английский / DTS-HD / 5.1 / 48 kHz / 1203 kbps / 16 bit (Core: 5.1 / 48 kHz / 1152 kbps / 16 bit)
    Навигация по главам: есть



    Код:

    General
    Unique ID                                : 185813347644806346609681026671497180017 (0x8BCA595A00EF9894A569582DA44BF371)
    Complete name                            : D:\Торенты\Prey.for.Death.2015.1080p.BluRay.REMUX.mkv
    Format                                   : Matroska
    Format version                           : Version 4 / Version 2
    File size                                : 15.0 GiB
    Duration                                 : 1h 20mn
    Overall bit rate mode                    : Variable
    Overall bit rate                         : 26.8 Mbps
    Movie name                               : anton1
    Encoded date                             : UTC 2015-06-24 11:23:09
    Writing application                      : mkvmerge v6.9.1 ('Blue Panther') 64bit built on Apr 18 2014 18:23:38
    Writing library                          : libebml v1.3.0 + libmatroska v1.4.1

    Video
    ID                                       : 1
    Format                                   : AVC
    Format/Info                              : Advanced Video Codec
    Format profile                           : High@L4.1
    Format settings, CABAC                   : Yes
    Format settings, ReFrames                : 2 frames
    Format settings, GOP                     : M=1, N=10
    Codec ID                                 : V_MPEG4/ISO/AVC
    Duration                                 : 1h 20mn
    Bit rate mode                            : Variable
    Bit rate                                 : 22.4 Mbps
    Width                                    : 1 920 pixels
    Height                                   : 1 080 pixels
    Display aspect ratio                     : 16:9
    Frame rate                               : 23.976 fps
    Color space                              : YUV
    Chroma subsampling                       : 4:2:0
    Bit depth                                : 8 bits
    Scan type                                : Progressive
    Bits/(Pixel*Frame)                       : 0.450
    Stream size                              : 12.5 GiB (84%)
    Title                                    : Prey.for.Death.2015.1080p.BluRay.REMUX.AVC.DTS-HD.MA.5.1-RARBG
    Language                                 : English
    Default                                  : No
    Forced                                   : No

    Audio #1
    ID                                       : 2
    Format                                   : DTS
    Format/Info                              : Digital Theater Systems
    Codec ID                                 : A_DTS
    Duration                                 : 1h 20mn
    Bit rate mode                            : Constant
    Bit rate                                 : 1 510 Kbps
    Channel(s)                               : 6 channels
    Channel positions                        : Front: L C R, Side: L R, LFE
    Sampling rate                            : 48.0 KHz
    Bit depth                                : 24 bits
    Compression mode                         : Lossy
    Stream size                              : 866 MiB (6%)
    Title                                    : datynet
    Language                                 : Russian
    Default                                  : Yes
    Forced                                   : No

    Audio #2
    ID                                       : 3
    Format                                   : DTS
    Format/Info                              : Digital Theater Systems
    Codec ID                                 : A_DTS
    Duration                                 : 1h 20mn
    Bit rate mode                            : Constant
    Bit rate                                 : 1 152 Kbps
    Channel(s)                               : 6 channels
    Channel positions                        : Front: L C R, Side: L R, LFE
    Sampling rate                            : 48.0 KHz
    Bit depth                                : 16 bits
    Compression mode                         : Lossy
    Stream size                              : 661 MiB (4%)
    Title                                    : xixidok
    Language                                 : Russian
    Default                                  : No
    Forced                                   : No

    Audio #3
    ID                                       : 4
    Format                                   : DTS
    Format/Info                              : Digital Theater Systems
    Format profile                           : MA / Core
    Codec ID                                 : A_DTS
    Duration                                 : 1h 20mn
    Bit rate mode                            : Variable
    Bit rate                                 : 1 203 Kbps / 1 152 Kbps
    Channel(s)                               : 6 channels
    Channel positions                        : Front: L C R, Side: L R, LFE
    Sampling rate                            : 48.0 KHz
    Bit depth                                : 16 bits
    Compression mode                         : Lossless / Lossy
    Title                                    : original
    Language                                 : English
    Default                                  : No
    Forced                                   : No

    Text #1
    ID                                       : 5
    Format                                   : UTF-8
    Codec ID                                 : S_TEXT/UTF8
    Codec ID/Info                            : UTF-8 Plain Text
    Title                                    : xixidok
    Language                                 : Russian
    Default                                  : No
    Forced                                   : No

    Text #2
    ID                                       : 6
    Format                                   : PGS
    Muxing mode                              : zlib
    Codec ID                                 : S_HDMV/PGS
    Codec ID/Info                            : The same subtitle format used on BDs/HD-DVDs
    Language                                 : Dutch
    Default                                  : No
    Forced                                   : No

    Menu
    00:00:00.000                             : en:Chapter 01
    00:10:00.182                             : en:Chapter 02
    00:20:00.157                             : en:Chapter 03
    00:30:00.131                             : en:Chapter 04
    00:39:59.939                             : en:Chapter 05
    00:50:00.080                             : en:Chapter 06
    01:00:00.054                             : en:Chapter 07
    01:10:00.029                             : en:Chapter 08

    Скриншоты:


    © Оформление by Ворон
    pb.wtf



  • Скачать Охота за мертвецом через торрент http://pic.kartinco.top/images/6/ordi9.jpg Скачать фильм Охота за мертвецом через торрент бесплантно в хорошем качестве Описание: Барон Эмерсон использует свое огромное богатство, чтобы путешествовать по миру и охотится. Он не охотиться на животных, он ... 10 10 4
    Info! Золотая раздача, скачанное не засчитывается.
    Торрент: Зарегистрирован [2015-06-25 14:16] · скачан: 26 раз
    Статус: T временная
    Размер: 15.01 GB
    Как cкачать? Как скачать Охота за мертвецом через торрент | qTorrent

    % Раздел Тема Автор DL S | L
    Фильмы 2015 (Звук TS, Cam, VO, DVO) [ 1.37 GB ] Охота за мертвецом / Prey for Death [2015 BDRip VO] Ворон Скачать
    1 | 0
    Фильмы 2015 (Звук TS, Cam, VO, DVO) [ 1.56 GB ] Охота за мертвецом / Prey for Death [2015 BDRip-AVC Любительский [Xixidok] + ENG GEKADOL Скачать
    1 | 0

    28-11-2019 20:33  

    Отключить всю рекламу на сайте

      Дорогой пользователь! Огромная просьба, поблагодарите релизера, оцените раздачу и оставьте свои комментарий, если Вы скачали Охота за мертвецом через торрент бесплатно! Внесите свою лепту в развитие PiratBit!
      Комментировать посты могут только пользователи прошедшие не сложную регистрацию
      Показать сообщения:    

      Охота за мертвецом через торрент
      Скачать бесплатно Охота за мертвецом
      Охота за мертвецом скачать торрент
      Охота за мертвецом смотреть онлайн
      Cкачать фильм Охота за мертвецом бесплатно
      Охота за мертвецом скачать торрент в хорошем качестве
      Охота за мертвецом смотреть онлайн бесплатно в хорошем качестве


      Вы не можете начинать темы
      Вы не можете отвечать на сообщения
      Вы не можете редактировать свои сообщения
      Вы не можете удалять свои сообщения
      Вы не можете голосовать в опросах
      Вы не можете прикреплять файлы к сообщениям
      Вы можете скачивать файлы