2 сезон

iTunes

1 сезон

1

iTunes

iTunes

iTunes

1 сезон

RePack

30

ИГРА 18+

pack

ВАЖНО

!!Акция!!

Alien_RageХит недели

RePack

MK11
pack

Забери бонус

RePack

jed

!!Акция!!

Alien_Rage

RePack

fifa19

RePack

Assassins Creed: Odyssey

RePack

NEED FOR SPEED™ PAYBACK

4 сезон

9 сезон

Бесстыжие 9 сезон

Все сериалы

все сериалы на PB.wtf

RePack

FAR CRY 5
  

Госпожа Бовари / Madame Bovary (Софи Бартез ) [2014, драма, WEB-DLRip, VO [Carl Gauß] pb.wtf

Госпожа Бовари через торрент pb.wtf

Размер: 1.45 GB | Добавлен: 5 лет 4 мес. назад | Торрент скачан:102 раза
Скачать  

25-06-2015 14:42 Госпожа Бовари Скачать торрент  


Госпожа Бовари / Madame Bovary


ИНФОРМАЦИЯ:
Год выпуска: 2014
Страна: Германия, Бельгия, США
Жанр: драма
Продолжительность: 01:58:32
Перевод: Любительский (одноголосый)[Carl Gauß]
Режиссер: Софи Бартез

В Ролях:


Эзра Миллер (Leon Dupuis), Миа Васиковска (Emma Bovary), Пол Джаматти (Monsieur Homais), Рис Иванс (Monsieur Lheureux), Логан Маршалл-Грин (The Marquis), Лаура Кармайкл (Henriette), Генри Ллойд-Хьюз (Charles Bovary), Ричард Кордери (L'Abbe Bournisien), Морфидд Кларк (Camille), Оливье Гурме (Monsieur Rouault), Люк Титтенсор (Hippolyte)

Описание:
Главная героиня - Эмма, молодая жена провинциального врача, скучающая в браке. Лекарством от скуки становятся любовники и дорогие наряды.

  • Мировая премьера:30 августа 2014

    ТЕХ.ДАННЫЕ:
    Качество: WEB-DLRip
    Формат: AVI
    Видео кодек: XviD
    Аудио кодек: MP3
    Видео: XviD, 720x304 (2.35:1), 1547 kbps, 23,976 fps, 0,295 bpp
    Аудио: MP3 / 2.0 / 48 kHz / 128 kbps /

    Код:

    General
    Complete name                            : D:\Торенты\Madame.Bovary.2014.L1.WEB-DLRip.avi
    Format                                   : AVI
    Format/Info                              : Audio Video Interleave
    File size                                : 1.45 GiB
    Duration                                 : 1h 58mn
    Overall bit rate                         : 1 754 Kbps
    Writing application                      : VirtualDubMod 1.5.10.3 | www.virtualdub-fr.org || (build 2550/release)
    Writing library                          : VirtualDubMod build 2550/release

    Video
    ID                                       : 0
    Format                                   : MPEG-4 Visual
    Format profile                           : Advanced Simple@L5
    Format settings, BVOP                    : 2
    Format settings, QPel                    : No
    Format settings, GMC                     : No warppoints
    Format settings, Matrix                  : Default (MPEG)
    Codec ID                                 : XVID
    Codec ID/Hint                            : XviD
    Duration                                 : 1h 58mn
    Bit rate                                 : 1 547 Kbps
    Width                                    : 720 pixels
    Height                                   : 304 pixels
    Display aspect ratio                     : 2.35:1
    Frame rate                               : 23.976 fps
    Color space                              : YUV
    Chroma subsampling                       : 4:2:0
    Bit depth                                : 8 bits
    Scan type                                : Progressive
    Compression mode                         : Lossy
    Bits/(Pixel*Frame)                       : 0.295
    Stream size                              : 1.28 GiB (88%)
    Writing library                          : XviD 1.2.1 (UTC 2008-12-04)

    Audio
    ID                                       : 1
    Format                                   : MPEG Audio
    Format version                           : Version 1
    Format profile                           : Layer 3
    Mode                                     : Joint stereo
    Codec ID                                 : 55
    Codec ID/Hint                            : MP3
    Duration                                 : 1h 58mn
    Bit rate mode                            : Constant
    Bit rate                                 : 128 Kbps
    Channel(s)                               : 2 channels
    Sampling rate                            : 48.0 KHz
    Compression mode                         : Lossy
    Stream size                              : 109 MiB (7%)
    Alignment                                : Aligned on interleaves

    Скриншоты:




    © Оформление by Ворон
    pb.wtf



  • Скачать Госпожа Бовари через торрент http://pic.kartinco.top/images/6/ordi9.jpg Скачать фильм Госпожа Бовари через торрент бесплантно в хорошем качестве Описание: Главная героиня - Эмма, молодая жена провинциального врача, скучающая в браке. Лекарством от скуки становятся любовники и дорогие ... 10 10 1
    Торрент: Зарегистрирован [2015-06-25 14:42] · скачан: 102 раз
    Статус: T временная
    Размер: 1.45 GB
    Как cкачать? Как скачать Госпожа Бовари через торрент | qTorrent

    28-11-2019 20:33  

    Отключить всю рекламу на сайте

      Дорогой пользователь! Огромная просьба, поблагодарите релизера, оцените раздачу и оставьте свои комментарий, если Вы скачали Госпожа Бовари через торрент бесплатно! Внесите свою лепту в развитие PiratBit!
      Комментировать посты могут только пользователи прошедшие не сложную регистрацию
      Показать сообщения:    

      Госпожа Бовари через торрент
      Скачать бесплатно Госпожа Бовари
      Госпожа Бовари скачать торрент
      Госпожа Бовари смотреть онлайн
      Cкачать фильм Госпожа Бовари бесплатно
      Госпожа Бовари скачать торрент в хорошем качестве
      Госпожа Бовари смотреть онлайн бесплатно в хорошем качестве


      Вы не можете начинать темы
      Вы не можете отвечать на сообщения
      Вы не можете редактировать свои сообщения
      Вы не можете удалять свои сообщения
      Вы не можете голосовать в опросах
      Вы не можете прикреплять файлы к сообщениям
      Вы можете скачивать файлы