Ссылка на приватное зеркало нашего сайта всего за 1$. Внимание количество ограничено!!!

2 сезон

iTunes

1 сезон

1

iTunes

iTunes

iTunes

1 сезон

RePack

30

ИГРА 18+

pack

ВАЖНО

!!Акция!!

Alien_RageХит недели

RePack

MK11
pack

Забери бонус

RePack

jed

!!Акция!!

Alien_Rage

RePack

fifa19

RePack

Assassins Creed: Odyssey

RePack

NEED FOR SPEED™ PAYBACK

4 сезон

9 сезон

Бесстыжие 9 сезон

Все сериалы

все сериалы на PB.wtf

RePack

FAR CRY 5
  

На грани безумия / Breaking at the Edge (Предраг Антониевич / Predrag Antonijevic) [2013, США, ужасы, триллер, HDRip, Любительский (одноголосый) [Xixidok] pb.wtf

На грани безумия через торрент pb.wtf

Размер: 737 MB | Добавлен: 5 лет 3 мес. назад | Торрент скачан:87 раз
Скачать  

26-06-2015 02:23 На грани безумия Скачать торрент  

На грани безумия / Breaking at the Edge


  • Год выпуска: 2013
  • Страна: США
  • Жанр: ужасы, триллер
  • Продолжительность: 01:25:47
  • Перевод: Любительский (одноголосый) [Xixidok]

  • Режиссер: Предраг Антониевич / Predrag Antonijevic
  • В ролях:

    Ребекка Да Коста (Bianca Wood), Майло Вентимилья (Ian Wood), Энди МакДауэлл (Dr. Ghozland), Джонатон Шек (Zach Wood), Логан Браунинг (Sara), Брианна Дэвис (Lorena), Кетренна Керклэнд (Det. Williams' Wife), Шеннон Мэйерс (Trendy Girl), Шэйн Грэй (Father Seamus), Роско Уильямс мл. (Cab Driver #2), Elizabeth Serral (Customer), Beverly Hienzelleman (Taxi Driver)

  • Описание:
    Беременная женщина боится потерять своего будущего ребенка, что вполне может произойти из-за вмешательства сверхъестественных сил.
  • Рейтинг:



  • Качество: HDRip
  • Формат: :AVI
  • Видео кодек: XviD
  • Аудио кодек: MP3
  • Видео: 640x352 (16:9), 999 kbps, 23,976 fps, 0,185 bpp
  • Аудио: 2.0 / 44 kHz / 192 kbps
  • Релиз от: GEKADOL

    Код:

    General
    Complete name                            : F:\Breaking.at.the.Edge.Xixidok.avi
    Format                                   : AVI
    Format/Info                              : Audio Video Interleave
    File size                                : 737 MiB
    Duration                                 : 1h 25mn
    Overall bit rate                         : 1 201 Kbps
    Writing application                      : VirtualDubMod 1.5.10.3 (build 2550/release)
    Writing library                          : VirtualDubMod build 2550/release

    Video
    ID                                       : 0
    Format                                   : MPEG-4 Visual
    Format profile                           : Advanced Simple@L5
    Format settings, BVOP                    : 2
    Format settings, QPel                    : No
    Format settings, GMC                     : No warppoints
    Format settings, Matrix                  : Default (H.263)
    Muxing mode                              : Packed bitstream
    Codec ID                                 : XVID
    Codec ID/Hint                            : XviD
    Duration                                 : 1h 25mn
    Bit rate                                 : 1 000 Kbps
    Width                                    : 640 pixels
    Height                                   : 352 pixels
    Display aspect ratio                     : 16:9
    Frame rate                               : 23.976 fps
    Color space                              : YUV
    Chroma subsampling                       : 4:2:0
    Bit depth                                : 8 bits
    Scan type                                : Progressive
    Compression mode                         : Lossy
    Bits/(Pixel*Frame)                       : 0.185
    Stream size                              : 613 MiB (83%)
    Writing library                          : XviD 65

    Audio
    ID                                       : 1
    Format                                   : MPEG Audio
    Format version                           : Version 1
    Format profile                           : Layer 3
    Codec ID                                 : 55
    Codec ID/Hint                            : MP3
    Duration                                 : 1h 25mn
    Bit rate mode                            : Constant
    Bit rate                                 : 192 Kbps
    Channel(s)                               : 2 channels
    Sampling rate                            : 44.1 KHz
    Compression mode                         : Lossy
    Stream size                              : 118 MiB (16%)
    Alignment                                : Split accross interleaves
    Interleave, duration                     : 42 ms (1.00 video frame)
    Interleave, preload duration             : 500 ms




    Скриншоты:



    pb.wtf



  • Скачать На грани безумия через торрент http://i6.imageban.ru/out/2015/06/26/280dbb15e079ddb867c015e156c35191.jpg Скачать фильм На грани безумия через торрент бесплантно в хорошем качестве Описание: Беременная женщина боится потерять своего будущего ребенка, что вполне может произойти из-за вмешательства сверхъестественных ... 9.3 10 4
    Торрент: Зарегистрирован [2015-06-26 02:23] · скачан: 87 раз
    Статус: √ проверено
    Размер: 737 MB
    Как cкачать? Как скачать На грани безумия через торрент | qTorrent

    % Раздел Тема Автор DL S | L
    Фильмы [HD 720p, 1080p] (Звук Cam, VO, DVO) [ 7.75 GB ] На грани безумия / Breaking at the Edge [2013 BDRip 1080p] VO Ворон Скачать
    1 | 0

    28-11-2019 20:33  

    Отключить всю рекламу на сайте

      Дорогой пользователь! Огромная просьба, поблагодарите релизера, оцените раздачу и оставьте свои комментарий, если Вы скачали На грани безумия через торрент бесплатно! Внесите свою лепту в развитие PiratBit!
      Комментировать посты могут только пользователи прошедшие не сложную регистрацию
      Показать сообщения:    

      На грани безумия через торрент
      Скачать бесплатно На грани безумия
      На грани безумия скачать торрент
      На грани безумия смотреть онлайн
      Cкачать фильм На грани безумия бесплатно
      На грани безумия скачать торрент в хорошем качестве
      На грани безумия смотреть онлайн бесплатно в хорошем качестве


      Вы не можете начинать темы
      Вы не можете отвечать на сообщения
      Вы не можете редактировать свои сообщения
      Вы не можете удалять свои сообщения
      Вы не можете голосовать в опросах
      Вы не можете прикреплять файлы к сообщениям
      Вы можете скачивать файлы