2 сезон

iTunes

1 сезон

1

iTunes

iTunes

iTunes

1 сезон

RePack

30

ИГРА 18+

pack

ВАЖНО

!!Акция!!

Alien_RageХит недели

RePack

MK11
pack

Забери бонус

RePack

jed

!!Акция!!

Alien_Rage

RePack

fifa19

RePack

Assassins Creed: Odyssey

RePack

NEED FOR SPEED™ PAYBACK

4 сезон

9 сезон

Бесстыжие 9 сезон

Все сериалы

все сериалы на PB.wtf

RePack

FAR CRY 5
  

Меч (2 сезон: 1-20 серий из 20 + Пролог) (Алексей Луканев) [2015 г., Детектив, криминал, HDTV 1080p] Оригинал pb.wtf

Меч через торрент pb.wtf

Размер: 54.85 GB | Добавлен: 5 лет 4 мес. назад | Торрент скачан:71 раз
Скачать  

26-06-2015 06:47 Меч Скачать торрент  

Меч (2 сезон: 1-20 серий из 20 + Пролог)
Год выпуска: 2015
Страна: Россия
Жанр: Детектив, криминал
Продолжительность: 1 х ~ 00:23:00, 20 x ~ 00:44:00
Перевод: Оригинал
Субтитры: нет

Режиссер: Алексей Луканев

В ролях: Эдуард Флёров, Роман Курцын, Дарья Повереннова, Александр Фисенко, Нина Гогаева, Макс Туранцев, Виктория Фишер, Владислав Павлов, Максим Щёголев, Тимур Ефременков, Анна Шевченко, Артур Сопельник, Дмитрий Архангельский, Александр Лырчиков, Андрей Курилов, Владислав Шкляев, Анна Глазкова, Никита Абдулов, Александр Курицын, Евгений Смирнов-Иваницкий, Анатолий Завьялов, Михаил Инчин, Дмитрий Пищулин, Ирина Шабашева, Александр Логинов (III)

Описание: Максим Калинин (Эдуард Флёров) – капитан запаса, бывший сотрудник Управления по борьбе с организованной преступностью. Когда-то его подставили и выгнали из органов, а настоящего преступника оправдали. Тогда Калинин создал организацию «Меч». В криминальных сводках такие группы называют незаконными вооруженными формированиями. Но главная цель Макса и его соратников – борьба с преступниками, ушедшими от правосудия. Они ведут свою собственную охоту на наркоторговцев, педофилов, насильников и других представителей преступного мира. Помимо Макса в группу вошли Костя Орлов (Роман Курцын) – снайпер, бывший сослуживец Калинина, Дима Чижов (Влад Павлов) – инспектор патрульно-постовой службы, опытный юрист Ольга Степненко (Виктория Фишер) и врач команды Лена Журова (Дарья Повереннова), присоединившаяся к «мечам» после того, как бандиты убили ее мужа, сотрудника СОБРа. У каждого в команде свои обязанности и задачи, но все решения принимаются сообща. Уверенные в том, что в борьбе за справедливость все средства хороши, члены группы вершат самосуд, нередко жертвуя своими бойцами. Одна из операций оборачивается особо серьезным испытанием: Костя погибает, лидер «Меча» Макс получает тяжелое ранение. Постепенно приходя в себя после ранения, Калинин понимает, что ему придется собирать «Меч» заново. Но Макс уверен: пока он жив, его дело должно быть продолжено. К группе присоединяются новички, а вскоре «мечи» узнают, что Костя Орлов выжил. Но где он и как сложится его дальнейшая судьба, это еще предстоит выяснить товарищам. В новом составе группа вновь готова выйти на охоту. Новичкам предстоит доказать свою преданность общему делу, а уже хорошо знакомым героям – не раз пойти на компромисс с собственной совестью ради идеи справедливости. «Мечи» по-прежнему находятся на грани: с одной стороны, криминальный мир, который объявляет огромные деньги за их поимку, с другой – правоохранительные органы, которые разыскивают участников группы…

Качество: HDTV (1080p)
Формат: MPEG
Видео кодек: AVC
Аудио кодек: MP2
Видео: MPEG-4 AVC, (1920x1080),8500 Кбит/с, 25.000кадра/сек
Аудио#1: MP2, 2 ch,256 kbps (Rus) 48.0 KHz Оригинал
скриншот   скриншот   скриншот  

Тип потока: Видео
Длительность: 00:44:21
Кодек: AVC
Кодек/описание: Advanced Video Codec
Кодек/профиль: Main@L4.0
Кодек/ID: 27
Кодек/CABAC: Yes
Кодек/ReFrames: 2 frames
Размеры изображения: 1920 x 1080 (16:9)
Частота кадров: 25.000 fps
Размер потока: 2.44 GiB (92%)
Битрейт: 7 859 Kbps
Цветовое пространство: YUV
Тип развёртки: MBAFF
Колориметрия: 4:2:0
Глубина: 8 bits
:
Тип потока: Звук #1
Язык: Russian
Длительность: 00:44:21.768
Кодек: MPEG Audio
Кодек/профиль: Layer 2
Кодек/ID: 3
Частота дискретизации: 48.0 KHz
Каналов: 2 channels
Битрейт: 256 Kbps
Битрейт/тип: Constant
Размер потока: 81.2 MiB (3%)
Метод сжатия: Lossy

pb.wtf



Скачать Меч через торрент http://pic1.kartinco.top/images/10/l3ob3.jpg Скачать фильм Меч через торрент бесплантно в хорошем качестве Описание: Максим Калинин (Эдуард Флёров) – капитан запаса, бывший сотрудник Управления по борьбе с организованной преступностью. Когда-то ... 9.2 10 15
Info! Золотая раздача, скачанное не засчитывается.
Торрент: Зарегистрирован [2015-06-26 06:47] · скачан: 71 раз
Статус: √ проверено
Размер: 54.85 GB
Как cкачать? Как скачать Меч через торрент | qTorrent

% Раздел Тема Автор DL S | L
Мультфильмы / Cartoons [ 9.72 GB ] Романтика во вспышках меча 2 / ロマンスは剣の輝きⅡ / Romance is in the Flash of the Sword II [2002.Comedy Fantasy Rape Sex SwordplayDVD5 Оригинальный] DJASFUL Скачать
1 | 2
Аниме [DVDrip, WEB-DLRip, HDrip] [ 1.29 GB ] Меч чужака / Sword of the Stranger [2007 аниме мультфильм BDRip MVO + Оригинал] Моряк Скачать
1 | 0
Нетрадиционное порно [ 386 MB ] Великолепная Красавица получает жёсткий секс своих мечтаний / Gorgeous natural Beauty gets the gangbang of her dreams. [HardcoreGangBang / Kink] [2013 Group sex Anal DP Gang Bang Domination Hardcore. DVDRip Оригинал] Pir@tya2010 Скачать
2 | 0
Порно фильмы с сюжетом [ 617 MB ] Летние мечты в Римини / Sogni D'Estate A Riccione [1992 Feature DVDRip Оригинал] shturmovik83 Скачать
1 | 0
Гонзо [ 1.37 GB ] Американские Мечты #10 / American Daydreams #10 [2012 All Sex Gonzo Fantasies DVDRip Оригинал] sheker187 Скачать
1 | 0
Порно фильмы без сюжета [ 1.33 GB ] Мечты / Dreams [2010 Anal Big Boobs Double Penetration Facial Cumshot Lesbian Masturbation Threesome Toys WEB-DL Оригинальный] nn99nn Скачать
1 | 0
Порно фильмы HD [ 4.26 GB ] Проклятые Мечты Харлоу Харрисон / Harlow Harrison's Whore Dreams [2017 DP Big Ass Gonzo Anal WEB-DL 1080p Оригинальный] nn99nn Скачать
1 | 0

28-11-2019 20:33  

Отключить всю рекламу на сайте

    Дорогой пользователь! Огромная просьба, поблагодарите релизера, оцените раздачу и оставьте свои комментарий, если Вы скачали Меч через торрент бесплатно! Внесите свою лепту в развитие PiratBit!
    Комментировать посты могут только пользователи прошедшие не сложную регистрацию
    Показать сообщения:    

    Меч через торрент
    Скачать бесплатно Меч
    Меч скачать торрент
    Меч смотреть онлайн
    Cкачать фильм Меч бесплатно
    Меч скачать торрент в хорошем качестве
    Меч смотреть онлайн бесплатно в хорошем качестве


    Вы не можете начинать темы
    Вы не можете отвечать на сообщения
    Вы не можете редактировать свои сообщения
    Вы не можете удалять свои сообщения
    Вы не можете голосовать в опросах
    Вы не можете прикреплять файлы к сообщениям
    Вы можете скачивать файлы