Ссылка на приватное зеркало нашего сайта всего за 1$. Внимание количество ограничено!!!

2 сезон

iTunes

1 сезон

1

2 сезон

2 сезон

iTunes

1 сезон

RePack

30

Новинка

ВАЖНО

ИГРА 18+

pack

RePack

MK11
pack

Забери бонус

RePack

jed

!!Акция!!

Alien_Rage

RePack

fifa19

RePack

Assassins Creed: Odyssey

RePack

NEED FOR SPEED™ PAYBACK

4 сезон

9 сезон

Бесстыжие 9 сезон

Все сериалы

все сериалы на PB.wtf

RePack

FAR CRY 5
  

Упырь / Ghoul (Петр Якл ) [2015, ужасы, триллер, WEB-DLRip, VO] pb.wtf

Упырь через торрент pb.wtf

Размер: 1.45 GB | Добавлен: 5 лет 5 мес. назад | Торрент скачан:180 раз
Скачать  

27-06-2015 00:44 Упырь Скачать торрент  


Упырь / Ghoul


ИНФОРМАЦИЯ:
Год выпуска: 2015
Страна: Чехия, Украина
Жанр: ужасы, триллер
Продолжительность: 01:26:16
Перевод: Любительский (одноголосый) [Xixidok]
Субтитры: Английские (вшитые на русскую и украинскую речь)
Режиссер: Петр Якл

В Ролях:

Дженнифер Армор (Jenny), Alina Golovlyova (Katarina), Пол С. Трэйси (Ryan)

Описание:
Съемочная группа, прибывшая в украинскую глубинку для создания документального фильма о каннибализме, сталкивается с историей Андрея Чикатило, жестокого серийного убийцы, жертвами которого стало почти пятьдесят человек. Пытаясь связаться с духом маньяка с помощью спиритической доски, герои вскоре понимают, что это была очень плохая идея...

  • Мировая премьера:26 февраля 2015

    ТЕХ.ДАННЫЕ:
    Качество: WEB-DLRip
    Формат: AVI
    Видео кодек: XviD
    Аудио кодек: MP3
    Видео: XviD, 720x400 (16:9), 1631 kbps, 23,976 fps, 0,263 bpp
    Аудио: (AC3, 6 ch, 384 Кбит/с / 48 kHz) Русский
    Аудио: (AC3, 6 ch, 384 Кбит/с / 48 kHz) Английский



    Код:

    General
    Complete name                            : D:\Торенты\Ghoul.2015.HDRip.Xixidok.avi
    Format                                   : AVI
    Format/Info                              : Audio Video Interleave
    File size                                : 1.27 GiB
    Duration                                 : 1h 26mn
    Overall bit rate                         : 2 101 Kbps
    Writing application                      : VirtualDubMod 1.5.10.3 (build 2550/release)
    Writing library                          : VirtualDubMod build 2550/release

    Video
    ID                                       : 0
    Format                                   : MPEG-4 Visual
    Format profile                           : Advanced Simple@L5
    Format settings, BVOP                    : 2
    Format settings, QPel                    : No
    Format settings, GMC                     : No warppoints
    Format settings, Matrix                  : Default (H.263)
    Muxing mode                              : Packed bitstream
    Codec ID                                 : XVID
    Codec ID/Hint                            : XviD
    Duration                                 : 1h 26mn
    Bit rate                                 : 1 817 Kbps
    Width                                    : 720 pixels
    Height                                   : 400 pixels
    Display aspect ratio                     : 16:9
    Frame rate                               : 23.976 fps
    Color space                              : YUV
    Chroma subsampling                       : 4:2:0
    Bit depth                                : 8 bits
    Scan type                                : Progressive
    Compression mode                         : Lossy
    Bits/(Pixel*Frame)                       : 0.263
    Stream size                              : 1.09 GiB (86%)
    Writing library                          : XviD 73

    Audio
    ID                                       : 1
    Format                                   : MPEG Audio
    Format version                           : Version 1
    Format profile                           : Layer 3
    Codec ID                                 : 55
    Codec ID/Hint                            : MP3
    Duration                                 : 1h 26mn
    Bit rate mode                            : Constant
    Bit rate                                 : 192 Kbps
    Channel(s)                               : 2 channels
    Sampling rate                            : 44.1 KHz
    Compression mode                         : Lossy
    Stream size                              : 118 MiB (9%)
    Alignment                                : Split accross interleaves

    Скриншоты:


    © Оформление by Ворон
    pb.wtf
    !Ворон писал(а):

    Обновлено. Перекачайте торент-файл



  • Скачать Упырь через торрент http://pic.kartinco.top/images/6/ordi9.jpg Скачать фильм Упырь через торрент бесплантно в хорошем качестве Описание: Съемочная группа, прибывшая в украинскую глубинку для создания документального фильма о каннибализме, сталкивается с историей ... 7.5 10 11
    Торрент: Зарегистрирован [2015-06-27 12:31] · скачан: 180 раз
    Статус: T временная
    Размер: 1.45 GB
    Как cкачать? Как скачать Упырь через торрент | qTorrent



    Последний раз редактировалось: Ворон (2015-06-27 12:32), всего редактировалось 2 раз(а)

    28-11-2019 20:33  

    Отключить всю рекламу на сайте

    27-06-2015 04:32 Упырь Скачать торрент  

    Последний скрин:Dpb.wtf



    27-06-2015 06:27 Упырь Скачать торрент  

    Трэшак??pb.wtf



    27-06-2015 12:35 Упырь Скачать торрент  

    m4r2 писал(а):

    Последний скрин:D

    Клоун из Slipknot? pb.wtf



    27-06-2015 14:43 Упырь Скачать торрент  

    oldGAMERu писал(а):

    m4r2 писал(а):

    Последний скрин:D

    Клоун из Slipknot?

    походу ху****я какая-то?pb.wtf



    27-06-2015 15:21 Упырь Скачать торрент  

    кто смотрел стоит вобще смотреть ? ?pb.wtf



    27-06-2015 16:35 Упырь Скачать торрент  

    на 4 скрине Чикатило О_Оpb.wtf



    28-06-2015 20:22 Упырь Скачать торрент  

    Это очень унылое ГГГГГ прям очень очень!!!честно совсем не стоит это смотреть вроде же идея интересная но нет .....кино не вышло......скучно зятянето не страшно ужасная сьемка и все что только плохое можно сказать сюда можно употребить....pb.wtf



    30-06-2015 08:59 Упырь Скачать торрент  

    РОНАЛЬД МАКДОНАЛЬД ОТРАВИЛСЯ БУРГЕРОМ))))))))))

    oldGAMERu писал(а):

    m4r2 писал(а):

    Последний скрин:D

    Клоун из Slipknot?

    pb.wtf



      Дорогой пользователь! Огромная просьба, поблагодарите релизера, оцените раздачу и оставьте свои комментарий, если Вы скачали Упырь через торрент бесплатно! Внесите свою лепту в развитие PiratBit!
      Комментировать посты могут только пользователи прошедшие не сложную регистрацию
      Показать сообщения:    

      Упырь через торрент
      Скачать бесплатно Упырь
      Упырь скачать торрент
      Упырь смотреть онлайн
      Cкачать фильм Упырь бесплатно
      Упырь скачать торрент в хорошем качестве
      Упырь смотреть онлайн бесплатно в хорошем качестве


      Вы не можете начинать темы
      Вы не можете отвечать на сообщения
      Вы не можете редактировать свои сообщения
      Вы не можете удалять свои сообщения
      Вы не можете голосовать в опросах
      Вы не можете прикреплять файлы к сообщениям
      Вы можете скачивать файлы