Ссылка на приватное зеркало нашего сайта всего за 1$. Внимание количество ограничено!!!

2 сезон

iTunes

1 сезон

1

iTunes

iTunes

iTunes

1 сезон

RePack

30

ИГРА 18+

pack

ВАЖНО

!!Акция!!

Alien_RageХит недели

RePack

MK11
pack

Забери бонус

RePack

jed

!!Акция!!

Alien_Rage

RePack

fifa19

RePack

Assassins Creed: Odyssey

RePack

NEED FOR SPEED™ PAYBACK

4 сезон

9 сезон

Бесстыжие 9 сезон

Все сериалы

все сериалы на PB.wtf

RePack

FAR CRY 5
  

Бывают дни… Бывают ночи / Il y a des jours... et des lunes (Клод Лелуш) [1990, драма, BDRip 720p от msltel] MVO pb.wtf

Бывают дни… Бывают ночи через торрент pb.wtf

Размер: 5.09 GB | Добавлен: 5 лет 4 мес. назад | Торрент скачан:6 раз
Скачать  

28-06-2015 09:23 Бывают дни… Бывают ночи Скачать торрент  


Название: Бывают дни… Бывают ночи
Оригинальное название: Il y a des jours... et des lunes
Год выпуска: 1990
Страна: Франция
Жанр: драма
Продолжительность: 01:56:56
Перевод: профессиональный многоголосый

Режиссёр: Клод Лелуш

В ролях: Жерар Ланвен, Патрик Шенэ, Анни Жирардо, Мари-Софи Л., Франсис Юстер, Венсан Линдон, Филипп Леотар, Жерар Дармон, Поль Пребуа, Серж Реджани

Описание: Что происходит, если не хватает одного часа? Мы опаздываем на самолёт, упускаем сделку, так и не встречаемся с женщиной своей мечты. К тому же за окном полнолуние: отношения натянуты, а плохое настроение распространяется как эпидемия, жизнь теряет яркость, судьбы больше не пересекаются в нужных местах. Секунда может изменить жизнь. Представляете, что может произойти за час!...



Качество: BDRip 720p Сравнение с исходником
Формат: MKV
Видео кодек: H.264
Аудио кодек: AC3
Видео: MPEG-4 AVC, 5665 Кбит/с, 1280x544, 24 кадра/с
Аудио 1: русский, AC3, 256 kbps, 2 ch, 48 kHz [профессиональный многоголосый]
Аудио 2: французский, AC3, 192 kbps, 2 ch, 48 kHz [оригинал]
Общее
Уникальный идентификатор : 183750681617942624558273001797830996319 (0x8A3D181093E6247FBE3F28A7A6BA715F)
Полное имя : D:VideoБывают дни. Бывают ночи.1990.BDRip.720p.mkv
Формат : Matroska
Версия формата : Version 4 / Version 2
Размер файла : 5,09 Гбайт
Продолжительность : 1 ч. 56 м.
Общий поток : 6237 Кбит/сек
Название фильма : BDRip -- STarankov
Дата кодирования : UTC 2015-06-26 01:47:56
Программа кодирования : mkvmerge v7.9.0 ('Birds') 64bit
Библиотека кодирования : libebml v1.3.1 + libmatroska v1.4.2
_STATISTICS_WRITING_APP : mkvmerge v7.9.0 ('Birds') 64bit
_STATISTICS_WRITING_DATE_UTC : 2015-06-26 01:47:56
_STATISTICS_TAGS : BPS DURATION NUMBER_OF_FRAMES NUMBER_OF_BYTES
DURATION : 01:56:56.448000000
NUMBER_OF_FRAMES : 219264
NUMBER_OF_BYTES : 168394752

Видео
Идентификатор : 1
Формат : AVC
Формат/Информация : Advanced Video Codec
Профиль формата : High@L4.1
Параметр CABAC формата : Да
Параметр ReFrames формата : 9 кадров
Идентификатор кодека : V_MPEG4/ISO/AVC
Продолжительность : 1 ч. 56 м.
Битрейт : 5665 Кбит/сек
Ширина : 1280 пикселей
Высота : 544 пикселя
Соотношение сторон : 2,35:1
Режим частоты кадров : Постоянный
Частота кадров : 24,000 кадра/сек
Цветовое пространство : YUV
Субдискретизация насыщенности : 4:2:0
Битовая глубина : 8 бит
Тип развёртки : Прогрессивная
Бит/(Пиксели*Кадры) : 0.339
Размер потока : 4,63 Гбайт (91%)
Библиотека кодирования : x264 core 146 r2538 121396c
Настройки программы : cabac=1 / ref=9 / deblock=1:-1:-1 / analyse=0x3:0x113 / me=umh / subme=10 / psy=1 / psy_rd=1.00:0.15 / mixed_ref=1 / me_range=32 / chroma_me=1 / trellis=2 / 8x8dct=1 / cqm=0 / deadzone=21,11 / fast_pskip=1 / chroma_qp_offset=-3 / threads=6 / lookahead_threads=1 / sliced_threads=0 / nr=0 / decimate=1 / interlaced=0 / bluray_compat=0 / constrained_intra=0 / bframes=11 / b_pyramid=2 / b_adapt=2 / b_bias=0 / direct=1 / weightb=1 / open_gop=0 / weightp=2 / keyint=230 / keyint_min=23 / scenecut=40 / intra_refresh=0 / rc_lookahead=40 / rc=crf / mbtree=0 / crf=20.5 / qcomp=0.60 / qpmin=0 / qpmax=69 / qpstep=4 / vbv_maxrate=40000 / vbv_bufsize=50000 / crf_max=0.0 / nal_hrd=none / filler=0 / ip_ratio=1.40 / pb_ratio=1.30 / aq=1:1.00
Язык : English
Default : Да
Forced : Нет
DURATION : 01:56:56.459000000
NUMBER_OF_FRAMES : 168395
NUMBER_OF_BYTES : 5075448048
_STATISTICS_WRITING_APP : mkvmerge v7.9.0 ('Birds') 64bit
_STATISTICS_WRITING_DATE_UTC : 2015-06-26 01:47:56
_STATISTICS_TAGS : BPS DURATION NUMBER_OF_FRAMES NUMBER_OF_BYTES

Аудио #1
Идентификатор : 2
Формат : AC-3
Формат/Информация : Audio Coding 3
Расширение режима : CM (complete main)
Параметр Endianness формата : Big
Идентификатор кодека : A_AC3
Продолжительность : 1 ч. 56 м.
Вид битрейта : Постоянный
Битрейт : 256 Кбит/сек
Каналы : 2 канала
Расположение каналов : Front: L R
Частота : 48,0 КГц
Битовая глубина : 16 бит
Метод сжатия : С потерями
Размер потока : 214 Мбайт (4%)
Заголовок : MVO
Язык : Russian
Default : Да
Forced : Нет

Аудио #2
Идентификатор : 3
Формат : AC-3
Формат/Информация : Audio Coding 3
Расширение режима : CM (complete main)
Параметр Endianness формата : Big
Идентификатор кодека : A_AC3
Продолжительность : 1 ч. 56 м.
Вид битрейта : Постоянный
Битрейт : 192 Кбит/сек
Каналы : 2 канала
Расположение каналов : Front: L R
Частота : 48,0 КГц
Битовая глубина : 16 бит
Метод сжатия : С потерями
Размер потока : 161 Мбайт (3%)
Заголовок : Original
Язык : French
Default : Нет
Forced : Нет
pb.wtf



Скачать Бывают дни… Бывают ночи через торрент http://i70.fastpic.ru/big/2015/0625/db/c9b6b6c5ace2577552ab51a8b199b4db.jpg Скачать фильм Бывают дни… Бывают ночи через торрент бесплантно в хорошем качестве Описание: Что происходит, если не хватает одного часа? Мы опаздываем на самолёт, упускаем сделку, так и не встречаемся с женщиной своей ... 10 10 4
Info! Золотая раздача, скачанное не засчитывается.
Торрент: Зарегистрирован [2015-06-28 09:23] · скачан: 6 раз
Статус: √ проверено
Размер: 5.09 GB
Как cкачать? Как скачать Бывают дни… Бывают ночи через торрент | qTorrent

% Раздел Тема Автор DL S | L
Фильмы до 2000 г. [ 2.75 GB ] Бывают дни… Бывают ночи / Il y a des jours... et des lunes [1990 BDRip AVC] MVO msltel Скачать
1 | 0
Фильмы [HD 720p, 1080p] (Хороший звук DUB, MVO) [ 14.47 GB ] Бывают дни… Бывают ночи / Il y a des jours... et des lunes [1990 BDRip 1080p от msltel] MVO msltel Скачать
1 | 0

28-11-2019 20:33  

Отключить всю рекламу на сайте

    Дорогой пользователь! Огромная просьба, поблагодарите релизера, оцените раздачу и оставьте свои комментарий, если Вы скачали Бывают дни… Бывают ночи через торрент бесплатно! Внесите свою лепту в развитие PiratBit!
    Комментировать посты могут только пользователи прошедшие не сложную регистрацию
    Показать сообщения:    

    Бывают дни… Бывают ночи через торрент
    Скачать бесплатно Бывают дни… Бывают ночи
    Бывают дни… Бывают ночи скачать торрент
    Бывают дни… Бывают ночи смотреть онлайн
    Cкачать фильм Бывают дни… Бывают ночи бесплатно
    Бывают дни… Бывают ночи скачать торрент в хорошем качестве
    Бывают дни… Бывают ночи смотреть онлайн бесплатно в хорошем качестве


    Вы не можете начинать темы
    Вы не можете отвечать на сообщения
    Вы не можете редактировать свои сообщения
    Вы не можете удалять свои сообщения
    Вы не можете голосовать в опросах
    Вы не можете прикреплять файлы к сообщениям
    Вы можете скачивать файлы