Ссылка на приватное зеркало всего за 1$. Внимание количество ограничено!!!

OK

1+1

iTunes

мы

OK

1

WEB-DLRip

Джокер

Пифагор

Ведьмак / The Witcher сериал

iTunes

ПШазам

ОК

Оно 2

iTunes

30
pack

Вам бонус

ВАЖНО

!!Акция!!

Alien_RageХит недели

RePack

Resident Evil 21

ИГРА 18+

pack

RePack

jed

RePack

fifa19

RePack

Assassins Creed: Odyssey

RePack

NEED FOR SPEED™ PAYBACK

4 сезон

9 сезон

Бесстыжие 9 сезон

Все сериалы

все сериалы на PB.wtf

RePack

FAR CRY 5
  

Континуум (Дин Израэлайт / Dean Israelite) [2015, Фантастика, триллер, BDRip-AVC от potroks] DUB Лицензия pb.wtf

Континуум через торрент pb.wtf

Размер: 1.46 GB | Добавлен: 4 года 6 мес. назад | Торрент скачан:452 раза
Скачать  

28-06-2015 15:58 Континуум Скачать торрент  

Континуум / Project Almanac
Год выпуска: 2015
Страна: США / Paramount Pictures, Insurge Pictures...
Жанр: Фантастика, триллер
Продолжительность: 01:46:12
Перевод: Дубляж [BD CEE]
Субтитры: Русские (полные + форс.)

Режиссер: Дин Израэлайт / Dean Israelite

В ролях: Джонни Уэстон, София Блэк-Д'Элиа, Сэм Лернер, Аллен Евангелиста, Эми Ландекер, Гари Викс, Максен Линтц, Гэри Граббс, Мишель ДеФрайтс, Карри Стоун

Описание: Однажды после просмотра старой пленки со дня рождения уже взрослый именинник заметил себя «настоящего» в отражении на видео. Съедаемые любопытством, друзья нашли чертежи таинственного устройства, похожего на машину времени. Они решили доделать ее и испробовать, чтобы вернуться в прошлое и исправить некоторые ошибки. Но что будет, если группа отвязных тинейджеров случайно завладеет машиной времени? Однозначно, будет весело! Пока кто-то не нарушит правила, и веселая шутка не обернется кошмаром. Надо торопиться восстановить континуум, пока мир окончательно не разрушен!



Качество: BDRip-AVC
Формат: MKV
Видео кодек: H.264
Аудио кодек: AC3
Видео: 912x380 (2,40:1), 23.976 fps, 1520 kbps, 0.183 bit/pixel
Аудио: 48 kHz, AC3 Dolby Digital, 3/2 (L,C,R,l,r) + LFE ch, 448.00 kbps

Релиз группы:
Автор рипа: potroks

Общее
Уникальный идентификатор : 176417871060624657201878354854285110203 (0x84B8D897648C8EDEA7F0A6BD6A8B6BBB)
Полное имя : Kontinuum.2014.RUS.BDRip.x264.-HELLYWOOD.mkv
Формат : Matroska
Версия формата : Version 4 / Version 2
Размер файла : 1,46 Гбайт
Продолжительность : 1 ч. 46 м.
Общий поток : 1969 Кбит/сек
Название фильма : Project Almanac (2014) - HELLYWOOD
Дата кодирования : UTC 2015-06-28 15:38:08
Программа кодирования : mkvmerge v5.9.0 ('On The Loose') built on Dec 15 2012 16:39:58
Библиотека кодирования : libebml v1.3.0 + libmatroska v1.4.0

Видео
Идентификатор : 1
Формат : AVC
Формат/Информация : Advanced Video Codec
Профиль формата : High@L4.1
Параметр CABAC формата : Да
Параметр ReFrames формата : 12 кадров
Идентификатор кодека : V_MPEG4/ISO/AVC
Продолжительность : 1 ч. 46 м.
Битрейт : 1520 Кбит/сек
Ширина : 912 пикселей
Высота : 380 пикселей
Соотношение сторон : 2,40:1
Режим частоты кадров : Постоянный
Частота кадров : 23,976 кадра/сек
Цветовое пространство : YUV
Субдискретизация насыщенности : 4:2:0
Битовая глубина : 8 бит
Тип развёртки : Прогрессивная
Бит/(Пиксели*Кадры) : 0.183
Размер потока : 1,10 Гбайт (75%)
Заголовок : potroks
Библиотека кодирования : x264 core 146 r2538 121396c
Настройки программы : cabac=1 / ref=12 / deblock=1:-2:-2 / analyse=0x3:0x113 / me=umh / subme=11 / psy=1 / psy_rd=0.96:0.00 / mixed_ref=1 / me_range=48 / chroma_me=1 / trellis=2 / 8x8dct=1 / cqm=0 / deadzone=21,11 / fast_pskip=0 / chroma_qp_offset=-2 / threads=9 / lookahead_threads=2 / sliced_threads=0 / nr=0 / decimate=1 / interlaced=0 / bluray_compat=0 / constrained_intra=0 / bframes=13 / b_pyramid=2 / b_adapt=2 / b_bias=0 / direct=3 / weightb=1 / open_gop=0 / weightp=2 / keyint=250 / keyint_min=23 / scenecut=40 / intra_refresh=0 / rc_lookahead=60 / rc=2pass / mbtree=0 / bitrate=1520 / ratetol=1.0 / qcomp=0.70 / qpmin=0 / qpmax=69 / qpstep=4 / cplxblur=20.0 / qblur=0.5 / vbv_maxrate=14000 / vbv_bufsize=14000 / nal_hrd=none / filler=0 / ip_ratio=1.35 / pb_ratio=1.25 / aq=1:0.90
Язык : English
Default : Да
Forced : Нет

Аудио
Идентификатор : 2
Формат : AC-3
Формат/Информация : Audio Coding 3
Расширение режима : CM (complete main)
Параметр Endianness формата : Big
Идентификатор кодека : A_AC3
Продолжительность : 1 ч. 46 м.
Вид битрейта : Постоянный
Битрейт : 448 Кбит/сек
Каналы : 6 каналов
Расположение каналов : Front: L C R, Side: L R, LFE
Частота : 48,0 КГц
Метод сжатия : С потерями
Размер потока : 340 Мбайт (23%)
Заголовок : Dub | DD 5.1 @ 448 kbps - Blu-Ray CEE
Язык : Russian
Default : Да
Forced : Нет

Текст #1
Идентификатор : 3
Формат : UTF-8
Идентификатор кодека : S_TEXT/UTF8
Идентификатор кодека/Информация : UTF-8 Plain Text
Заголовок : Forced
Язык : Russian
Default : Да
Forced : Нет

Текст #2
Идентификатор : 4
Формат : UTF-8
Идентификатор кодека : S_TEXT/UTF8
Идентификатор кодека/Информация : UTF-8 Plain Text
Заголовок : iTunes
Язык : Russian
Default : Нет
Forced : Нет

Меню
00:00:00.000 : en:Chapter 01
00:07:56.309 : en:Chapter 02
00:15:20.210 : en:Chapter 03
00:23:49.803 : en:Chapter 04
00:31:15.665 : en:Chapter 05
00:39:19.273 : en:Chapter 06
00:46:58.273 : en:Chapter 07
00:54:11.957 : en:Chapter 08
01:00:55.485 : en:Chapter 09
01:09:43.304 : en:Chapter 10
01:16:24.371 : en:Chapter 11
01:23:07.732 : en:Chapter 12
01:32:20.618 : en:Chapter 13
01:41:19.323 : en:Chapter 14
01:46:12.532 : en:Chapter 15

pb.wtf



Скачать Континуум через торрент http://pic.kartinco.top/images/11/4xgwp.jpg Скачать фильм Континуум через торрент бесплантно в хорошем качестве Описание: Однажды после просмотра старой пленки со дня рождения уже взрослый именинник заметил себя «настоящего» в отражении на видео. ... 9.9 10 11
Info! Золотая раздача, скачанное не засчитывается.
Торрент: Зарегистрирован [2015-06-28 15:58] · скачан: 452 раз
Статус: √ проверено
Размер: 1.46 GB
Как cкачать? Как скачать Континуум через торрент | qTorrent

% Раздел Тема Автор DL S | L
Фильмы 2015 [DVDrip, WEB-DLRip, HDrip] [ 1.46 GB ] Континуум [2015 BDRip] DUB Twi7ter Скачать
1 | 0
Фильмы 2015 [DVDrip, WEB-DLRip, HDrip] [ 2.18 GB ] Континуум [2015 BDRip-AVC] DUB potroks Скачать
1 | 0

28-11-2019 20:33  

Отключить всю рекламу на сайте

    Дорогой пользователь! Огромная просьба, поблагодарите релизера, оцените раздачу и оставьте свои комментарий, если Вы скачали Континуум через торрент бесплатно! Внесите свою лепту в развитие PiratBit!
    Комментировать посты могут только пользователи прошедшие не сложную регистрацию
    Показать сообщения:    

    Континуум через торрент
    Скачать бесплатно Континуум
    Континуум скачать торрент
    Континуум смотреть онлайн
    Cкачать фильм Континуум бесплатно
    Континуум скачать торрент в хорошем качестве
    Континуум смотреть онлайн бесплатно в хорошем качестве


    Вы не можете начинать темы
    Вы не можете отвечать на сообщения
    Вы не можете редактировать свои сообщения
    Вы не можете удалять свои сообщения
    Вы не можете голосовать в опросах
    Вы не можете прикреплять файлы к сообщениям
    Вы можете скачивать файлы