Всегда рабочее зеркало без VPN и Proxy просто перед .vidak.icu напиши любое слово или цифру, Пример http://0y8h.vidak.icu

MVO

2 сезон

1 сезон

1

1 сезон

iTunes

2 сезон

13

1 сезон

Распродажа

pack

Рекомендуем

Пиратка

30

ВАЖНО

RePack

MK11

RePack

jed

RePack

fifa19

RePack

RDR2

RePack

NEED FOR SPEED™ PAYBACK

Кинопоиск HD

6 сезон

 Острые козырьки 6 сезон

Все сериалы

все сериалы на PB.wtf

RePack

FAR CRY 5

Anonymous, нам критически не хватает 5601 руб. на оплату серверов и переферии за Апрель, помоги нам пожалуйста, вся надежда только на тебя. В благодарность мы отключим тебе всю рекламу на сайте!

×
  
Magnet ссылка

Стрингер / Nightcrawler (Дэн Гилрой) [2014 г., триллер, криминал, HDRip, Профессиональный многоголосый закадровый "iTunes"] pb.wtf

Стрингер через торрент pb.wtf

Размер: 2.21 GB | Добавлен: 6 лет 8 мес. назад | Торрент скачан:386 раз
Смотреть онлайн Стрингер | Скачать    Ребята, помогите собрать деньги на оплату серверов!!!

28-06-2015 16:39 Стрингер Скачать торрент  

Стрингер / Nightcrawler
Год выпуска: 2014
Страна: США / Bold Films, Sierra / Affinity, Nightcrawler
Жанр: триллер, криминал
Продолжительность: 01:58:05
Перевод: Профессиональный многоголосый закадровый (iTunes)

Режиссер: Дэн Гилрой

IMDB 7.90 (203 261)


В ролях: Джейк Джилленхол, Рене Руссо, Риз Ахмед, Билл Пэкстон, Майкл Пападжон, Марко Родригес, Джеймс Хуанг, Кент Шокнек, Пэт Харви, Шэрон Тэй

Описание: Луи Блум пытается найти работу. После того как он видит, как любительская съемочная группа снимает автомобильную аварию, он меняет ворованный велосипед на камеру и снимает последствия угона автомобиля, чтобы продать местной телевизионной компании. Директор новостей Нина покупает запись и убеждает его продолжить работу. Вскоре становится ясно, что ради по-настоящему стоящего материала Луи не остановится ни перед чем...

Качество: HDRip
Формат: AVI
Видео кодек: XviD
Аудио кодек: AC3
Видео: 720x304 (2.37:1), 23.976 fps, XviD build 50 ~2285 kbps avg, 0.44 bit/pixe
Аудио: 48 kHz, AC3 Dolby Digital, 3/2 (L,C,R,l,r) + LFE ch, ~384 kbps

Общее
Полное имя : F:\кино\Стрингер.2014.P.HDRip.avi
Формат : AVI
Формат/Информация : Audio Video Interleave
Профиль формата : OpenDML
Размер файла : 2,21 Гбайт
Продолжительность : 1 ч. 58 м.
Общий поток : 2675 Кбит/сек
Программа кодирования : VirtualDubMod 1.5.10.3 | www.virtualdub-fr.org || (build 2550/release)
Библиотека кодирования : VirtualDubMod build 2550/release

Видео
Идентификатор : 0
Формат : MPEG-4 Visual
Профиль формата : Advanced Simple@L5
Параметр BVOP формата : 2
Параметр QPel формата : Нет
Параметр GMC формата : Без точки перехода
Параметр матрицы формата : Default (H.263)
Идентификатор кодека : XVID
Идентификатор кодека/Подсказка : XviD
Продолжительность : 1 ч. 58 м.
Битрейт : 2280 Кбит/сек
Ширина : 720 пикселей
Высота : 304 пикселя
Соотношение сторон : 2,35:1
Частота кадров : 23,976 кадра/сек
Цветовое пространство : YUV
Субдискретизация насыщенности : 4:2:0
Битовая глубина : 8 бит
Тип развёртки : Прогрессивная
Метод сжатия : С потерями
Бит/(Пиксели*Кадры) : 0.434
Размер потока : 1,88 Гбайт (85%)
Библиотека кодирования : XviD 1.2.1 (UTC 2008-12-04)

Аудио
Идентификатор : 1
Формат : AC-3
Формат/Информация : Audio Coding 3
Расширение режима : CM (complete main)
Параметр Endianness формата : Big
Идентификатор кодека : 2000
Продолжительность : 1 ч. 57 м.
Вид битрейта : Постоянный
Битрейт : 384 Кбит/сек
Каналы : 6 каналов
Расположение каналов : Front: L C R, Side: L R, LFE
Частота : 48,0 КГц
Метод сжатия : С потерями
Размер потока : 324 Мбайт (14%)
Выравнивание : Разделение по промежуткам
Продолжительность промежутка : 42 мс. (1,00 видеокадр)
Время предзагрузки промежутка : 500 мс.

pb.wtf



Скачать Стрингер через торрент https://pic1.kartinco.top/images/10/rasl1.jpg Скачать, смотреть онлайн Стрингер бесплантно в хорошем качестве Описание: Луи Блум пытается найти работу. После того как он видит, как любительская съемочная группа снимает автомобильную аварию, он ... 8.7 10 16
Торрент: Зарегистрирован [2015-08-23 17:58] · скачан: 386 раз
Статус: √ проверено
Размер: 2.21 GB
Как cкачать? Как скачать Стрингер через торрент | UTorrent

% Раздел Тема Автор DL S | L
Фильмы [HD 720p, 1080p] (Хороший звук DUB, MVO) [ 5.12 GB ] Стрингер / Nightcrawler [2014 BDRip 1080p HEVC ] Мичман37 Скачать
1 | 0
Фильмы 2014 [DVDrip, WEB-DLRip, HDrip] [ 1.47 GB ] Стрингер / Nightcrawler [2014 BDRip] MVO [] Twi7ter Скачать
3 | 0
Фильмы [HD 720p, 1080p] (Хороший звук DUB, MVO) [ 8.35 GB ] Стрингер / Nightcrawler [2014 BDRip 720p MVO] + ENG GEKADOL Скачать
1 | 0
Фильмы (Blu-ray, BD-Remux, HDDVD) [ 38.81 GB ] Стрингер / Nightcrawler [2014 Blu-ray 1080p / Custom] / MVO 3 x AVO Russian Mafia Скачать
1 | 0
Фильмы [HD 720p, 1080p] (Хороший звук DUB, MVO) [ 11.99 GB ] Стрингер / Nightcrawler [2014 BDRip 1080p MVO] + ENG GEKADOL Скачать
1 | 0
Фильмы 2014 [DVDrip, WEB-DLRip, HDrip] [ 1.46 GB ] Стрингер / Nightcrawler [2014 BDRip многоголосый Twi7ter Скачать
1 | 0
Фильмы [HD 720p, 1080p] (Хороший звук DUB, MVO) [ 7.96 GB ] Стрингер / Nightcrawler [2014 BDRip 720p] MVO 3xAVO _denis_100 Скачать
1 | 0


Последний раз редактировалось: coc900 (2015-08-23 17:57), всего редактировалось 1 раз

28-11-2019 20:33  

Отключить всю рекламу на сайте

23-08-2015 18:01 Стрингер Скачать торрент  

Релиз обновлен!Просьба перекачать торрент файл ! Модераторам просьба перенести в нужный раздел! pb.wtf



23-08-2015 21:04 Стрингер Скачать торрент  

Идею слизали с одноименного нашего фильма?pb.wtf



24-08-2015 12:45 Стрингер Скачать торрент  

Опасное название фильма,я бы не рискнул смотреть sarcasticpb.wtf



    Дорогой пользователь! Огромная просьба, поблагодарите релизера, оцените раздачу и оставьте свои комментарий, если Вы скачали Стрингер через торрент бесплатно!
    Комментировать посты могут только пользователи прошедшие не сложную регистрацию
    Показать сообщения:    

    Стрингер через торрент
    Скачать бесплатно Стрингер
    Стрингер скачать торрент
    Стрингер смотреть онлайн
    Cкачать фильм Стрингер бесплатно
    Стрингер скачать торрент в хорошем качестве
    Стрингер смотреть онлайн бесплатно в хорошем качестве


    Вы не можете начинать темы
    Вы не можете отвечать на сообщения
    Вы не можете редактировать свои сообщения
    Вы не можете удалять свои сообщения
    Вы не можете голосовать в опросах
    Вы не можете прикреплять файлы к сообщениям
    Вы можете скачивать файлы