Ссылка на приватное зеркало всего за 1$. Внимание количество ограничено!!!

OK

1+1

iTunes

мы

OK

1

WEB-DLRip

Джокер

Пифагор

Ведьмак / The Witcher сериал

Лицензия

ПШазам

ОК

Оно 2

iTunes

30
pack

Вам бонус

ВАЖНО

!!Акция!!

Alien_RageХит недели

RePack

Resident Evil 21

ИГРА 18+

pack

RePack

jed

!!Акция!!

Alien_Rage

RePack

fifa19

RePack

Assassins Creed: Odyssey

RePack

NEED FOR SPEED™ PAYBACK

4 сезон

9 сезон

Бесстыжие 9 сезон

Все сериалы

все сериалы на PB.wtf

RePack

FAR CRY 5
  

Дневник горничной / Journal d'une femme de chambre (Бенуа Жако ) [2015, драма, WEB-DLRip, Дубляж - Лицензия / iTunes] pb.wtf

Дневник горничной через торрент pb.wtf

Размер: 1.37 GB | Добавлен: 4 года 6 мес. назад | Торрент скачан:369 раз
Скачать  

29-06-2015 02:34 Дневник горничной Скачать торрент  


Дневник горничной / Journal d'une femme de chambre


ИНФОРМАЦИЯ:
Год выпуска: 2015
Страна: Франция, Бельгия
Жанр: драма
Продолжительность: 01:36:02
Перевод: Дубляж - [Лицензия / iTunes]
Режиссер: Бенуа Жако

В Ролях:


Леа Сейду (Célestine), Венсан Линдон (Joseph), Клотильд Молле (Madame Lanlaire), Херв Пьер (Monsieur Lanlaire), Mélodie Valemberg (Marianne), Патрик д’Асумсао (Le capitaine), Венсан Лакост (Georges), Жозефин Деренне (La grand-mère de Georges), Доминик Реймон (La placeuse), Розетт (Rose), Адриана Асти (Elvira Parsi, la maquerelle), Орелия Пети (La maîtresse (train))

Описание:
Горничная Селестина, чья сексапильная внешность - неизменный объект мужского внимания, уехав из Парижа, поступает на службу в семью провинциальных помещиков Ланлэр. В этом доме она вынуждена постоянно лавировать между обитателями, прислуживая властной и скаредной хозяйке и давая отпор приставаниям ее похотливого супруга. Чувствуя себя чужой в этой обители достатка, Селестина все больше сближается с молчаливым слугой-садовником Жозефом, чья брутальная натура пленяет ее уязвленную женственность...

  • Мировая премьера:7 февраля 2015

    ТЕХ.ДАННЫЕ:
    Качество: WEB-DLRip
    Формат: AVI
    Видео кодек: XviD
    Аудио кодек: AC3
    Видео: XviD, 720x304 (2.35:1), 1566 kbps, 24 fps, 0,298 bpp
    Аудио: AC3 / 5.1 / 48 kHz / 384 kbps / 16 bit



    Код:

    General
    Complete name                            : D:\Торенты\DHeBH1k.g0PH14H0j.2015.D.WEB-DLRip.1400Mb.avi
    Format                                   : AVI
    Format/Info                              : Audio Video Interleave
    File size                                : 1.37 GiB
    Duration                                 : 1h 36mn
    Overall bit rate                         : 2 040 Kbps
    Writing application                      : VirtualDubMod 1.5.10.3 | www.virtualdub-fr.org || (build 2550/release)
    Writing library                          : VirtualDubMod build 2550/release

    Video
    ID                                       : 0
    Format                                   : MPEG-4 Visual
    Format profile                           : Advanced Simple@L5
    Format settings, BVOP                    : 2
    Format settings, QPel                    : No
    Format settings, GMC                     : No warppoints
    Format settings, Matrix                  : Default (H.263)
    Codec ID                                 : XVID
    Codec ID/Hint                            : XviD
    Duration                                 : 1h 36mn
    Bit rate                                 : 1 566 Kbps
    Width                                    : 720 pixels
    Height                                   : 304 pixels
    Display aspect ratio                     : 2.35:1
    Frame rate                               : 24.000 fps
    Color space                              : YUV
    Chroma subsampling                       : 4:2:0
    Bit depth                                : 8 bits
    Scan type                                : Progressive
    Compression mode                         : Lossy
    Bits/(Pixel*Frame)                       : 0.298
    Stream size                              : 1.05 GiB (77%)
    Writing library                          : XviD 1.2.1 (UTC 2008-12-04)

    Audio
    ID                                       : 1
    Format                                   : AC-3
    Format/Info                              : Audio Coding 3
    Mode extension                           : CM (complete main)
    Codec ID                                 : 2000
    Duration                                 : 1h 36mn
    Bit rate mode                            : Constant
    Bit rate                                 : 384 Kbps
    Channel(s)                               : 6 channels
    Channel positions                        : Front: L C R, Side: L R, LFE
    Sampling rate                            : 48.0 KHz
    Bit depth                                : 16 bits
    Compression mode                         : Lossy
    Stream size                              : 264 MiB (19%)
    Alignment                                : Split accross interleaves

    Скриншоты:


    © Оформление by Ворон
    pb.wtf



  • Скачать Дневник горничной через торрент http://pic.kartinco.top/images/6/ordi9.jpg Скачать фильм Дневник горничной через торрент бесплантно в хорошем качестве Описание: Горничная Селестина, чья сексапильная внешность - неизменный объект мужского внимания, уехав из Парижа, поступает на службу в ... 9.9 10 13
    Торрент: Зарегистрирован [2015-06-29 02:34] · скачан: 369 раз
    Статус: √ проверено
    Размер: 1.37 GB
    Как cкачать? Как скачать Дневник горничной через торрент | qTorrent

    28-11-2019 20:33  

    Отключить всю рекламу на сайте

    29-06-2015 07:19 Дневник горничной Скачать торрент  

    Ворон писал(а):

    Ворон

    приветствую. это лицензия?pb.wtf



    29-06-2015 07:35 Дневник горничной Скачать торрент  

    damika777, Цифровая Лицензия. Есть дисковая, будет позже..там битрейт звука от 448 и выше и качество картинки лучше(хотя и тут нормально)pb.wtf



      Дорогой пользователь! Огромная просьба, поблагодарите релизера, оцените раздачу и оставьте свои комментарий, если Вы скачали Дневник горничной через торрент бесплатно! Внесите свою лепту в развитие PiratBit!
      Комментировать посты могут только пользователи прошедшие не сложную регистрацию
      Показать сообщения:    

      Дневник горничной через торрент
      Скачать бесплатно Дневник горничной
      Дневник горничной скачать торрент
      Дневник горничной смотреть онлайн
      Cкачать фильм Дневник горничной бесплатно
      Дневник горничной скачать торрент в хорошем качестве
      Дневник горничной смотреть онлайн бесплатно в хорошем качестве


      Вы не можете начинать темы
      Вы не можете отвечать на сообщения
      Вы не можете редактировать свои сообщения
      Вы не можете удалять свои сообщения
      Вы не можете голосовать в опросах
      Вы не можете прикреплять файлы к сообщениям
      Вы можете скачивать файлы