Ссылка на приватное зеркало всего за 1$. Внимание количество ограничено!!!

iTunes

iTunes

iTunes

1

iTunes

iTunes

iTunes

iTunes

iTunes

30
pack

$ от Little Big

ВАЖНО

!!Акция!!

Alien_RageХит недели

RePack

Resident Evil 21

ИГРА 18+

pack

RePack

jed

!!Акция!!

Alien_Rage

RePack

fifa19

RePack

Assassins Creed: Odyssey

RePack

NEED FOR SPEED™ PAYBACK

4 сезон

9 сезон

Бесстыжие 9 сезон

Все сериалы

все сериалы на PB.wtf

RePack

FAR CRY 5
  

Дневник горничной / Journal d'une femme de chambre (Бенуа Жако ) [2015, драма, WEB-DL 1080p, Дубляж - Лицензия / iTunes] pb.wtf

Дневник горничной через торрент pb.wtf

Размер: 3.28 GB | Добавлен: 5 лет назад | Торрент скачан:88 раз
Скачать  

29-06-2015 03:26 Дневник горничной Скачать торрент  


Дневник горничной / Journal d'une femme de chambre


ИНФОРМАЦИЯ:
Год выпуска: 2015
Страна: Франция, Бельгия
Жанр: драма
Продолжительность: 01:36:02
Перевод: Дубляж - [Лицензия / iTunes]
Режиссер: Бенуа Жако

В Ролях:


Леа Сейду (Célestine), Венсан Линдон (Joseph), Клотильд Молле (Madame Lanlaire), Херв Пьер (Monsieur Lanlaire), Mélodie Valemberg (Marianne), Патрик д’Асумсао (Le capitaine), Венсан Лакост (Georges), Жозефин Деренне (La grand-mère de Georges), Доминик Реймон (La placeuse), Розетт (Rose), Адриана Асти (Elvira Parsi, la maquerelle), Орелия Пети (La maîtresse (train))

Описание:
Горничная Селестина, чья сексапильная внешность - неизменный объект мужского внимания, уехав из Парижа, поступает на службу в семью провинциальных помещиков Ланлэр. В этом доме она вынуждена постоянно лавировать между обитателями, прислуживая властной и скаредной хозяйке и давая отпор приставаниям ее похотливого супруга. Чувствуя себя чужой в этой обители достатка, Селестина все больше сближается с молчаливым слугой-садовником Жозефом, чья брутальная натура пленяет ее уязвленную женственность...

  • Мировая премьера:7 февраля 2015

    ТЕХ.ДАННЫЕ:
    Качество: WEB-DL 1080p
    Формат: MKV
    Видео кодек: AVC
    Аудио кодек: AC3
    Видео: AVC, 1920x800 (2.40:1), 4410 kbps, 24 fps, 0,120 bpp
    Аудио: русский / AC3 / 5.1 / 48 kHz / 384 kbps / 16 bit ||
    Навигация по главам: есть



    Код:

    General
    Unique ID                                : 228546827561487897695709313017831415250 (0xABF0849468A2BF5BA45D27516C82DDD2)
    Complete name                            : D:\Торенты\DHeBH1k.g0PH14H0j.2015.D.WEB-DL.1080p.mkv
    Format                                   : Matroska
    Format version                           : Version 4 / Version 2
    File size                                : 3.28 GiB
    Duration                                 : 1h 36mn
    Overall bit rate                         : 4 892 Kbps
    Encoded date                             : UTC 2015-06-29 00:40:37
    Writing application                      : mkvmerge v6.9.1 ('Blue Panther') 64bit built on Apr 18 2014 18:23:38
    Writing library                          : libebml v1.3.0 + libmatroska v1.4.1

    Video
    ID                                       : 1
    Format                                   : AVC
    Format/Info                              : Advanced Video Codec
    Format profile                           : High@L4.0
    Format settings, CABAC                   : Yes
    Format settings, ReFrames                : 5 frames
    Codec ID                                 : V_MPEG4/ISO/AVC
    Duration                                 : 1h 36mn
    Bit rate                                 : 4 411 Kbps
    Width                                    : 1 920 pixels
    Height                                   : 800 pixels
    Display aspect ratio                     : 2.40:1
    Frame rate                               : 24.000 fps
    Color space                              : YUV
    Chroma subsampling                       : 4:2:0
    Bit depth                                : 8 bits
    Scan type                                : Progressive
    Bits/(Pixel*Frame)                       : 0.120
    Stream size                              : 2.96 GiB (90%)
    Language                                 : English
    Default                                  : Yes
    Forced                                   : No
    Color primaries                          : BT.709-5, BT.1361, IEC 61966-2-4, SMPTE RP177
    Transfer characteristics                 : BT.709-5, BT.1361
    Matrix coefficients                      : BT.709-5, BT.1361, IEC 61966-2-4 709, SMPTE RP177

    Audio
    ID                                       : 2
    Format                                   : AC-3
    Format/Info                              : Audio Coding 3
    Mode extension                           : CM (complete main)
    Codec ID                                 : A_AC3
    Duration                                 : 1h 36mn
    Bit rate mode                            : Constant
    Bit rate                                 : 384 Kbps
    Channel(s)                               : 6 channels
    Channel positions                        : Front: L C R, Side: L R, LFE
    Sampling rate                            : 48.0 KHz
    Bit depth                                : 16 bits
    Compression mode                         : Lossy
    Stream size                              : 264 MiB (8%)
    Language                                 : Russian
    Default                                  : Yes
    Forced                                   : No

    Menu
    00:00:00.000                             : en:Глава 1
    00:08:04.000                             : en:Глава 2
    00:12:51.000                             : en:Глава 3
    00:16:08.000                             : en:Глава 4
    00:24:21.000                             : en:Глава 5
    00:32:05.000                             : en:Глава 6
    00:36:07.000                             : en:Глава 7
    00:42:55.000                             : en:Глава 8
    00:48:17.000                             : en:Глава 9
    00:54:41.000                             : en:Глава 10
    01:01:32.000                             : en:Глава 11
    01:05:08.000                             : en:Глава 12
    01:11:06.000                             : en:Глава 13
    01:17:56.000                             : en:Глава 14
    01:22:26.000                             : en:Глава 15
    01:27:52.000                             : en:Глава 16

    Скриншоты:


    © Оформление by Ворон
    pb.wtf



  • Скачать Дневник горничной через торрент http://pic.kartinco.top/images/6/ordi9.jpg Скачать фильм Дневник горничной через торрент бесплантно в хорошем качестве Описание: Горничная Селестина, чья сексапильная внешность - неизменный объект мужского внимания, уехав из Парижа, поступает на службу в ... 10 10 6
    Торрент: Зарегистрирован [2015-06-29 03:26] · скачан: 88 раз
    Статус: √ проверено
    Размер: 3.28 GB
    Как cкачать? Как скачать Дневник горничной через торрент | qTorrent

    28-11-2019 20:33  

    Отключить всю рекламу на сайте

    29-06-2015 05:15 Дневник горничной Скачать торрент  

    Спс, норм, можно посмотреть разок!pb.wtf



      Дорогой пользователь! Огромная просьба, поблагодарите релизера, оцените раздачу и оставьте свои комментарий, если Вы скачали Дневник горничной через торрент бесплатно! Внесите свою лепту в развитие PiratBit!
      Комментировать посты могут только пользователи прошедшие не сложную регистрацию
      Показать сообщения:    

      Дневник горничной через торрент
      Скачать бесплатно Дневник горничной
      Дневник горничной скачать торрент
      Дневник горничной смотреть онлайн
      Cкачать фильм Дневник горничной бесплатно
      Дневник горничной скачать торрент в хорошем качестве
      Дневник горничной смотреть онлайн бесплатно в хорошем качестве


      Вы не можете начинать темы
      Вы не можете отвечать на сообщения
      Вы не можете редактировать свои сообщения
      Вы не можете удалять свои сообщения
      Вы не можете голосовать в опросах
      Вы не можете прикреплять файлы к сообщениям
      Вы можете скачивать файлы