1 сезон

1 сезон

iTunes

1

КиноПоиск HD

Кинопоиск HD

iTunes

13

1 сезон

RePack

30

Новинка

ВАЖНО

ИГРА 18+

pack

RePack

MK11
pack

Легкие деньги

RePack

jed

RePack

fifa19

RePack

RDR2

RePack

NEED FOR SPEED™ PAYBACK

4 сезон

9 сезон

Бесстыжие 9 сезон

Все сериалы

все сериалы на PB.wtf

RePack

FAR CRY 5
  
Magnet ссылка

Оптом дешевле / Cheaper by the Dozen (Шон Леви / Shawn Levy) [2003, США, комедия, семейный, WEB-DLRip-AVC от sokol_ok] Dub pb.wtf

Оптом дешевле через торрент pb.wtf

Раздают: 1 [ 0 KB/s ]
Размер: 1.45 GB | Добавлен: 5 лет 9 мес. назад | Торрент скачан:59 раз
Скачать  

29-06-2015 10:51 Оптом дешевле Скачать торрент  

Оптом дешевле
Cheaper by the Dozen

«Growing pains? They've got twelve of them!»




Страна: США
Жанр: комедия, семейный
Год выпуска: 2003
Продолжительность: 01:39:05

Перевод: Профессиональный (полное дублирование)
Cубтитры: Русские
Оригинальная аудиодорожка: нет

Режиссер:
Шон Леви / Shawn Levy

В ролях:
Стив Мартин, Бонни Хант, Пайпер Перабо, Том Уэллинг, Хилари Дафф, Кевин Шмидт, Элисон Стоунер, Джейкоб Смит, Лилиана Муми, Морган Йорк

Описание:
Том и Кейт вместе еще со школы. Они всегда мечтали о большой семье и успешной карьере. Но после рождения первых детей мысли о карьере ушли на второй план и все семейство переехало в тихий и спокойной Иллинойс. Когда детей стало уже двенадцать, Тому предложили работу его мечты — тренировать футбольную команду.

Для этого всей семье опять приходится поменять место жительства. Кейт тоже повезло — ее мемуары наконец-то опубликуют. Она едет на презентацию книги в Нью-Йорк, оставляя бедного Тома следить за целой оравой детей. Сможет ли Том правильно распределить свои усилия, чтобы ни дети, ни работа не пострадали?


Релиз:

Автор рипа: Stalker oK

Сэмпл

Качество видео: WEB-DLRip-AVC [WEB-DL 1080p-hdclub]
Формат видео: MKV
Видео кодек: AVC
Аудио кодек: AC3
Видео: 1714 Кбит/сек, 908*492 (16:9), в 23,976 кадр/сек, AVC
Аудио: Russian, 384 Кбит/сек, 48,0 КГц, 16 бит, 6 канала(ов), AC-3
Общее
Уникальный идентификатор : 198678781846285967855073322444041154416 (0x9578243B20A42E7C8EE5FB24017EEF70)
Полное имя : L:\рипы\Оптом дешевле\Cheaper.by.the.Dozen.2003.WEB-DLRip-AVC.Dub.1.45Gb...stalkerok.new-team.mkv
Формат : Matroska
Размер файла : 1,45 Гбайт
Продолжительность : 1 ч. 39 м.
Общий поток : 2098 Кбит/сек
Название фильма : Cheaper by the Dozen, 2003 (New-Team) (Rip by Stalker oK)
Дата кодирования : UTC 2015-06-28 19:45:01
Программа кодирования : mkvmerge v7.9.0 ('Birds') 64bit
Библиотека кодирования : libebml v1.3.1 + libmatroska v1.4.2

Видео
Идентификатор : 1
Формат : AVC
Формат/Информация : Advanced Video Codec
Профиль формата : High@L4.1
Параметр CABAC формата : Да
Параметр ReFrames формата : 12 кадры
Идентификатор кодека : V_MPEG4/ISO/AVC
Продолжительность : 1 ч. 39 м.
Битрейт : 1714 Кбит/сек
Ширина : 908 пикс.
Высота : 492 пикс.
Соотношение сторон : 16:9
Частота кадров : 23,976 кадр/сек
Цветовое пространство : YUV
Подвыборка цветности : 4:2:0
Битовая глубина : 8 бит
Тип развёртки : Прогрессивная
Бит/(Пиксели*Кадры) : 0.160
Размер потока : 1,16 Гбайт (80%)
Заголовок : Cheaper by the Dozen, 2003 (New-Team) (Rip by Stalker oK)
Библиотека кодирования : x264 core 146 r2538kMod 121396c
Настройки программы : cabac=1 / ref=12 / deblock=1:-2:-1 / analyse=0x3:0x133 / me=umh / subme=11 / psy=1 / fade_compensate=0.00 / psy_rd=1.08:0.05 / mixed_ref=1 / me_range=32 / chroma_me=1 / trellis=2 / 8x8dct=1 / cqm=0 / deadzone=21,11 / fast_pskip=0 / chroma_qp_offset=-3 / threads=12 / lookahead_threads=3 / sliced_threads=0 / nr=0 / decimate=0 / interlaced=0 / bluray_compat=0 / constrained_intra=0 / fgo=0 / bframes=14 / b_pyramid=2 / b_adapt=2 / b_bias=0 / direct=3 / weightb=1 / open_gop=0 / weightp=2 / keyint=240 / keyint_min=23 / scenecut=40 / intra_refresh=0 / rc_lookahead=40 / rc=2pass / mbtree=0 / bitrate=1714 / ratetol=1.0 / qcomp=0.70 / qpmin=0 / qpmax=69 / qpstep=4 / cplxblur=20.0 / qblur=0.5 / vbv_maxrate=50000 / vbv_bufsize=62500 / nal_hrd=none / filler=0 / ip_ratio=1.40 / pb_ratio=1.30 / aq=3:0.90

Аудио
Идентификатор : 2
Формат : AC-3
Формат/Информация : Audio Coding 3
Расширение режима : CM (complete main)
Идентификатор кодека : A_AC3
Продолжительность : 1 ч. 39 м.
Вид битрейта : Постоянный
Битрейт : 384 Кбит/сек
Канал(ы) : 6 канала(ов)
Расположение каналов : Front: L C R, Side: L R, LFE
Частота : 48,0 КГц
Битовая глубина : 16 бит
Метод сжатия : С потерями
Размер потока : 272 Мбайт (18%)
Заголовок : AC3 6 ch 384 kbps Dub
Язык : Russian

Текст
Идентификатор : 3
Формат : UTF-8
Идентификатор кодека : S_TEXT/UTF8
Идентификатор кодека/Информация : UTF-8 Plain Text
Язык : Russian

Меню
00:00:00.000 : en:Kapitel 01
00:04:52.000 : en:Kapitel 02
00:08:31.000 : en:Kapitel 03
00:12:34.000 : en:Kapitel 04
00:15:51.000 : en:Kapitel 05
00:19:31.000 : en:Kapitel 06
00:21:03.000 : en:Kapitel 07
00:23:26.000 : en:Kapitel 08
00:26:40.000 : en:Kapitel 09
00:28:50.000 : en:Kapitel 10
00:31:16.000 : en:Kapitel 11
00:33:44.000 : en:Kapitel 12
00:41:26.000 : en:Kapitel 13
00:44:29.000 : en:Kapitel 14
00:46:39.000 : en:Kapitel 15
00:52:19.000 : en:Kapitel 16
00:53:34.000 : en:Kapitel 17
00:58:22.000 : en:Kapitel 18
01:03:51.000 : en:Kapitel 19
01:07:23.000 : en:Kapitel 20
01:11:52.000 : en:Kapitel 21
01:15:11.000 : en:Kapitel 22
01:17:50.000 : en:Kapitel 23
01:19:26.000 : en:Kapitel 24
01:26:47.000 : en:Kapitel 25
01:27:59.000 : en:Kapitel 26
01:30:12.000 : en:Kapitel 27
01:31:48.000 : en:Kapitel 28
pb.wtf



Скачать Оптом дешевле через торрент http://i4.imageban.ru/out/2013/11/20/23afd37ba301cf29b16658cd2201c4ed.png Скачать фильм Оптом дешевле через торрент бесплантно в хорошем качестве Описание:Том и Кейт вместе еще со школы. Они всегда мечтали о большой семье и успешной карьере. Но после рождения первых детей мысли о ... 8.7 10 3
Торрент: Зарегистрирован [2015-06-29 10:51] · скачан: 59 раз
Статус: √ проверено
Размер: 1.45 GB
Как cкачать? Как скачать Оптом дешевле через торрент | UTorrent

% Раздел Тема Автор DL S | L
Фильмы (WEB-DL 720p, 1080p) [ 9.31 GB ] Оптом дешевле / Cheaper by the Dozen [2003 WEB-DL 1080p] + [DVO] + [Ukr] killermax2013 Скачать
1 | 0
Фильмы [HD 720p, 1080p] (Хороший звук DUB, MVO) [ 8.06 GB ] Оптом дешевле 2 / Cheaper by the Dozen 2 [2005 BDRip 1080p ot msltel] DUB msltel Скачать
1 | 0
Фильмы 2001-2005 [ 2 GB ] Оптом дешевле 2 / Cheaper by the Dozen 2 [2005 BDRip AVC ot msltel] DUB msltel Скачать
1 | 0
Фильмы [HD 720p, 1080p] (Хороший звук DUB, MVO) [ 3.14 GB ] Оптом дешевле 2 / Cheaper by the Dozen 2 [2005 BDRip 720p ot msltel] DUB msltel Скачать
1 | 0
Фильмы 2001-2005 [ 2.18 GB ] Оптом дешевле / Cheaper by the Dozen [2003 WEB-DLRip-AVC от sokol_ok] Dub sokol_ok Скачать
2 | 0
Фильмы 2001-2005 [ 1.35 GB ] Оптом дешевле / Cheaper by the Dozen [2003 HDTVRip] Dub dexter lex Скачать
1 | 0
Фильмы 2001-2005 [ 744 MB ] Оптом дешевле 2 / Cheaper by the Dozen 2 [2005 HDRip] Dub dexter lex Скачать
1 | 0

28-11-2019 20:33  

Отключить всю рекламу на сайте

    Дорогой пользователь! Огромная просьба, поблагодарите релизера, оцените раздачу и оставьте свои комментарий, если Вы скачали Оптом дешевле через торрент бесплатно! Внесите свою лепту в развитие PiratBit!
    Комментировать посты могут только пользователи прошедшие не сложную регистрацию
    Показать сообщения:    

    Оптом дешевле через торрент
    Скачать бесплатно Оптом дешевле
    Оптом дешевле скачать торрент
    Оптом дешевле смотреть онлайн
    Cкачать фильм Оптом дешевле бесплатно
    Оптом дешевле скачать торрент в хорошем качестве
    Оптом дешевле смотреть онлайн бесплатно в хорошем качестве


    Вы не можете начинать темы
    Вы не можете отвечать на сообщения
    Вы не можете редактировать свои сообщения
    Вы не можете удалять свои сообщения
    Вы не можете голосовать в опросах
    Вы не можете прикреплять файлы к сообщениям
    Вы можете скачивать файлы