Anonymous, добрый вечер, присоединяйтесь к нам в Telegram!, здесь всегда актуальный адрес сайта, оперативная поддержка и многое другое!

>

5.6

iTunes

7.4

MVO

5.7

MVO

1

7.7

1 сезон

6.8

iTunes

7.3

1 сезон

13

6.7

1 сезон

8.3

RePack

30

ULTIMATE

pack

9.9

Лицензия

ВАЖНО

ИГРА 18+

pack

7.3

RePack

MK11

7.7

RePack

jed

7.8

RePack

fifa19

8.5

RePack

RDR2

RePack

NEED FOR SPEED™ PAYBACK

4 сезон

9 сезон

Бесстыжие 9 сезон

Все сериалы

все сериалы на PB.wtf

RePack

FAR CRY 5

Anonymous, добрый вечер, мы катастрофически не успеваем собрать деньги на оплату серверов, помогите нам пожалуйста 5,10,15р., для нас важна любая помощь . В качестве благодарности мы отключим Вам всю рекламу на сайте (укажите свой ник в строку Ваше имя)!

×
  
Magnet ссылка

13-й район: Дилогия / Banlieue 13: Dilogy (Пьер Морель, Патрик Алессандрин) [2004, 2009, Франция, Фантастика, боевик, триллер, BDRip 720p,DUB] 60fps от R.G. HD-Films pb.wtf

13-й район: Дилогия через торрент pb.wtf

Качают: 2 [ 0 KB/s ]
Размер: 8.28 GB | Добавлен: 6 лет 3 мес. назад | Торрент скачан:51 раз
Смотреть онлайн 13-й район: Дилогия | Скачать    Ребята, помогите собрать деньги на оплату серверов!!!

29-06-2015 11:45 13-й район: Дилогия Скачать торрент  

13-й район: Дилогия / Banlieue 13: Dilogy
13-й район / Banlieue 13
Год выпуска: 2004
Страна: Франция
Жанр: фантастика, боевик, триллер

Продолжительность: 01:24:30
Перевод: Дубляж
Субтитры: русские (Full),
Режиссер: Пьер Морель
В ролях: Давид Белль (Leïto), Сирил Раффаэлли (Capt. Damien Tomaso), Тони Д’Амарио (K2), Биби Насери (Taha Bemamud), Дани Вериссимо (Lola), Франсуа Шатто (Krüger), Николас Войрион (Corsini), Патрик Оливье (Le colonel), Самир Гесми (Jamel), Марк Андреони (Carlos Montoya), Жером Гаднер (K2 boy 1), Тарик Бусехин (Yoyo (para 1))
Описание:
2010 год, Париж, из-за разгула преступности некоторые особо опасные районы французской столицы превращены в закрытые зоны и отгорожены от благополучных кварталов бетонной стеной. За ней бурлит совсем другая жизнь: здесь процветает торговля наркотиками и оружием, здесь даже дети не выходят из дома без оружия, здесь давно не работают школы и поликлиники, здесь полиция не стоит на страже закона, а лишь защищает себя или же сама поддерживает беззаконие. Главарю одной из банд удается завладеть нейтронной бомбой. Чтобы обезвредить ее, в 13-й район отправляется офицер спецназа Дамьен. Проникать в опасные зоны - его профессия, однако на этот раз ему все-таки нужен проводник. Союзником Дамьена становится Лейто, отчаянный парень, сестра которого похищена тем же самым главарем...
Рейтинг:

Качество: BDRip 720p / 60fps
Формат: MKV
Видео кодек: AVC
Аудио кодек:AC3
Видео: AVC, 1280x536 (2.40:1), 5450 kbps, 60 fps, 0,132 bpp
Аудио: русский / AC3 / 5.1 / 48 kHz / 384 kbps / 16 bit ||
Навигация по главам: есть
Релиз:
General
Unique ID : 189486059009833350382692520096395298399 (0x8E8DB000989D1973BDBFF41BB86E065F)
Complete name : E:\Banlieue.13.Dilogy\Banlieue.13.(2004).BDRip.720p.(60 Fps).mkv
Format : Matroska
Format version : Version 4 / Version 2
File size : 3.51 GiB
Duration : 1h 24mn
Overall bit rate : 5 953 Kbps
Movie name : 13-й район / Banlieue 13 (2004) BDRip 720p от R.G. HD-Films | 60 fps
Encoded date : UTC 2015-06-29 08:24:19
Writing application : mkvmerge v6.2.0 ('Promised Land') built on Apr 28 2013 12:22:01
Writing library : libebml v1.3.0 + libmatroska v1.4.0

Video
ID : 1
Format : AVC
Format/Info : Advanced Video Codec
Format profile : High@L4.1
Format settings, CABAC : Yes
Format settings, ReFrames : 4 frames
Codec ID : V_MPEG4/ISO/AVC
Duration : 1h 24mn
Bit rate : 5 450 Kbps
Width : 1 280 pixels
Height : 536 pixels
Display aspect ratio : 2.40:1
Frame rate : 60.000 fps
Color space : YUV
Chroma subsampling : 4:2:0
Bit depth : 8 bits
Scan type : Progressive
Bits/(Pixel*Frame) : 0.132
Stream size : 3.22 GiB (92%)
Title : slaventi-69 ( R.G. HD-Films | 60 fps )
Writing library : x264 core 130 r2273 b3065e6
Encoding settings : cabac=1 / ref=4 / deblock=1:0:0 / analyse=0x3:0x113 / me=umh / subme=9 / psy=1 / psy_rd=1.00:0.00 / mixed_ref=1 / me_range=24 / chroma_me=1 / trellis=2 / 8x8dct=1 / cqm=0 / deadzone=21,11 / fast_pskip=1 / chroma_qp_offset=-2 / threads=12 / lookahead_threads=1 / sliced_threads=0 / nr=0 / decimate=1 / interlaced=0 / bluray_compat=0 / constrained_intra=0 / bframes=4 / b_pyramid=2 / b_adapt=2 / b_bias=0 / direct=1 / weightb=1 / open_gop=0 / weightp=2 / keyint=250 / keyint_min=25 / scenecut=40 / intra_refresh=0 / rc_lookahead=40 / rc=crf / mbtree=1 / crf=18.0 / qcomp=0.60 / qpmin=0 / qpmax=69 / qpstep=4 / ip_ratio=1.40 / aq=1:1.00
Language : French
Default : Yes
Forced : No

Audio
ID : 2
Format : AC-3
Format/Info : Audio Coding 3
Mode extension : CM (complete main)
Codec ID : A_AC3
Duration : 1h 24mn
Bit rate mode : Constant
Bit rate : 384 Kbps
Channel(s) : 6 channels
Channel positions : Front: L C R, Side: L R, LFE
Sampling rate : 48.0 KHz
Bit depth : 16 bits
Compression mode : Lossy
Stream size : 232 MiB (6%)
Title : Dub
Language : Russian
Default : Yes
Forced : No

Text
ID : 3
Format : UTF-8
Codec ID : S_TEXT/UTF8
Codec ID/Info : UTF-8 Plain Text
Title : Full
Language : Russian
Default : No
Forced : No

Menu
00:00:00.000 : en:(01)00:00:00:000
00:02:43.747 : en:(02)00:02:43:747
00:11:38.239 : en:(03)00:11:38:239
00:13:06.994 : en:(04)00:13:06:994
00:20:00.740 : en:(05)00:20:00:740
00:22:49.157 : en:(06)00:22:49:157
00:33:28.213 : en:(07)00:33:28:213
00:36:15.755 : en:(08)00:36:15:755
00:43:33.817 : en:(09)00:43:33:817
00:49:42.102 : en:(10)00:49:42:102
00:55:45.715 : en:(11)00:55:45:715
01:02:24.780 : en:(12)01:02:24:780
01:05:45.313 : en:(13)01:05:45:313
01:08:58.840 : en:(14)01:08:58:840
01:14:48.856 : en:(15)01:14:48:856
01:20:34.533 : en:(16)01:20:34:533
скриншот   скриншот   скриншот   скриншот   скриншот   скриншот  Просьба к переливающим на другие сайты, в оформлении указывайте пожалуйста авторство рипа slaventi-69
13-й район: Ультиматум / Banlieue 13 Ultimatum
Год выпуска: 2009
Страна: Франция
Жанр: боевик, триллер, криминал

Продолжительность: 01:40:56
Перевод: Дубляж
Субтитры: русские (форс.),
русские (Строев),
Режиссер: Патрик Алессандрен
В ролях: Сирил Раффаэлли (Capt. Damien Tomaso), Давид Белль (Leïto), Филипп Торретон (Le président de la République), Даниэль Дюваль (Walter Gassman), Элоди Юнг (Tao), МС Жан Габен (Molko), Джеймс Диано (Karl le skin), Лауни Муид (Ali-K), Фабрис Флетцингер (Little Montana), Пьер-Мари Москони (Roland), Джонни Амаро (Policier centre de contrôle), Паскаль Д’Амато (Le garde escaller préfecture)
Описание:
13-й район, три года спустя. Стена, отделяющая неблагополучный пригород от столицы, стала больше, выше и отгородила от цивилизации еще больше кварталов. По эту сторону стены правят пять банд, контролирующих этнические районы. Правительство как никогда заинтересовано в «урегулировании проблемы», и разведывательные службы охотно инициируют беспорядки. Лейто и Дамьену снова приходится объединить усилия, чтобы спасти Париж от хаоса.
Рейтинг:

Качество: BDRip 720p / 60fps
Формат: MKV
Видео кодек: AVC
Аудио кодек:AC3
Видео: AVC, 1280x544 (2.35:1), 6238 kbps, 60 fps, 0,149 bpp
Аудио: русский / AC3 / 5.1 / 48 kHz / 384 kbps / 16 bit ||
Навигация по главам: есть
Релиз:
General
Unique ID : 175633469810829636670151575002935871652 (0x8421C69FB697C0A5A6AB7678590A48A4)
Complete name : E:\Banlieue.13.Dilogy\Banlieue.13.Ultimatum.(2009).BDRip.720p.(60 Fps).mkv
Format : Matroska
Format version : Version 4 / Version 2
File size : 4.76 GiB
Duration : 1h 40mn
Overall bit rate : 6 757 Kbps
Movie name : 13-й район: Ультиматум / Banlieue 13 Ultimatum (2009) BDRip 720p от R.G. HD-Films | 60 fps
Encoded date : UTC 2015-06-29 08:18:49
Writing application : mkvmerge v6.2.0 ('Promised Land') built on Apr 28 2013 12:22:01
Writing library : libebml v1.3.0 + libmatroska v1.4.0

Video
ID : 1
Format : AVC
Format/Info : Advanced Video Codec
Format profile : High@L4.1
Format settings, CABAC : Yes
Format settings, ReFrames : 4 frames
Codec ID : V_MPEG4/ISO/AVC
Duration : 1h 40mn
Bit rate : 6 239 Kbps
Width : 1 280 pixels
Height : 544 pixels
Display aspect ratio : 2.35:1
Frame rate : 60.000 fps
Color space : YUV
Chroma subsampling : 4:2:0
Bit depth : 8 bits
Scan type : Progressive
Bits/(Pixel*Frame) : 0.149
Stream size : 4.40 GiB (92%)
Title : slaventi-69 ( R.G. HD-Films | 60 fps )
Writing library : x264 core 130 r2273 b3065e6
Encoding settings : cabac=1 / ref=4 / deblock=1:0:0 / analyse=0x3:0x113 / me=umh / subme=9 / psy=1 / psy_rd=1.00:0.00 / mixed_ref=1 / me_range=30 / chroma_me=1 / trellis=2 / 8x8dct=1 / cqm=0 / deadzone=21,11 / fast_pskip=1 / chroma_qp_offset=-2 / threads=12 / lookahead_threads=1 / sliced_threads=0 / nr=0 / decimate=1 / interlaced=0 / bluray_compat=0 / constrained_intra=0 / bframes=4 / b_pyramid=2 / b_adapt=2 / b_bias=0 / direct=1 / weightb=1 / open_gop=0 / weightp=2 / keyint=250 / keyint_min=25 / scenecut=40 / intra_refresh=0 / rc_lookahead=40 / rc=crf / mbtree=1 / crf=18.0 / qcomp=0.60 / qpmin=0 / qpmax=69 / qpstep=4 / ip_ratio=1.40 / aq=1:1.00
Language : French
Default : Yes
Forced : No

Audio
ID : 2
Format : AC-3
Format/Info : Audio Coding 3
Mode extension : CM (complete main)
Codec ID : A_AC3
Duration : 1h 40mn
Bit rate mode : Constant
Bit rate : 384 Kbps
Channel(s) : 6 channels
Channel positions : Front: L C R, Side: L R, LFE
Sampling rate : 48.0 KHz
Bit depth : 16 bits
Compression mode : Lossy
Stream size : 277 MiB (6%)
Title : Dub
Language : Russian
Default : Yes
Forced : No

Text #1
ID : 3
Format : UTF-8
Codec ID : S_TEXT/UTF8
Codec ID/Info : UTF-8 Plain Text
Title : форс.
Language : Russian
Default : No
Forced : No

Text #2
ID : 4
Format : UTF-8
Codec ID : S_TEXT/UTF8
Codec ID/Info : UTF-8 Plain Text
Title : Строев
Language : Russian
Default : No
Forced : No

Menu
00:00:00.000 : en:(01)00:00:00:000
00:08:17.250 : en:(02)00:08:17:250
00:13:15.208 : en:(03)00:13:15:208
00:25:04.167 : en:(04)00:25:04:167
00:34:50.500 : en:(05)00:34:50:500
00:43:22.458 : en:(06)00:43:22:458
00:51:24.083 : en:(07)00:51:24:083
00:59:23.667 : en:(08)00:59:23:667
01:08:00.625 : en:(09)01:08:00:625
01:14:30.457 : en:(10)01:14:30:457
01:23:01.332 : en:(11)01:23:01:332
01:33:33.250 : en:(12)01:33:33:250
скриншот   скриншот   скриншот   скриншот   скриншот   скриншот  Просьба к переливающим на другие сайты, в оформлении указывайте пожалуйста авторство рипа slaventi-69
Просьба к переливающим на другие сайты, в оформлении указывайте пожалуйста авторство группы R.G. HD-Filmspb.wtf



Скачать 13-й район: Дилогия через торрент https://pic.kartinco.top/images/11/jrzw6.jpg Скачать, смотреть онлайн 13-й район: Дилогия бесплантно в хорошем качестве Описание: 2010 год, Париж, из-за разгула преступности некоторые особо опасные районы французской столицы превращены в закрытые зоны и ... 9.9 10 15
Info! Золотая раздача, скачанное не засчитывается.
Торрент: Зарегистрирован [2015-06-29 11:45] · скачан: 51 раз
Статус: √ проверено
Размер: 8.28 GB
Как cкачать? Как скачать 13-й район: Дилогия через торрент | UTorrent

28-11-2019 20:33  

Отключить всю рекламу на сайте

29-06-2015 12:43 13-й район: Дилогия Скачать торрент  

Бодренькие фильмы.Особенно 1 часть. pb.wtf



29-06-2015 12:52 13-й район: Дилогия Скачать торрент  

Третью часть не стал делать, честно говоря фильм никакой.pb.wtf



26-09-2015 06:43 13-й район: Дилогия Скачать торрент  

скорость супер,,за 12 часов ни 1% ))),вообще не качаетpb.wtf



07-11-2015 21:11 13-й район: Дилогия Скачать торрент  

Ребята, будьте добры, раздайте плзpb.wtf



09-11-2016 19:12 13-й район: Дилогия Скачать торрент  

Качаю. Всем спасибо.pb.wtf



    Дорогой пользователь! Огромная просьба, поблагодарите релизера, оцените раздачу и оставьте свои комментарий, если Вы скачали 13-й район: Дилогия через торрент бесплатно!
    Комментировать посты могут только пользователи прошедшие не сложную регистрацию
    Показать сообщения:    

    13-й район: Дилогия через торрент
    Скачать бесплатно 13-й район: Дилогия
    13-й район: Дилогия скачать торрент
    13-й район: Дилогия смотреть онлайн
    Cкачать фильм 13-й район: Дилогия бесплатно
    13-й район: Дилогия скачать торрент в хорошем качестве
    13-й район: Дилогия смотреть онлайн бесплатно в хорошем качестве


    Вы не можете начинать темы
    Вы не можете отвечать на сообщения
    Вы не можете редактировать свои сообщения
    Вы не можете удалять свои сообщения
    Вы не можете голосовать в опросах
    Вы не можете прикреплять файлы к сообщениям
    Вы можете скачивать файлы