Ссылка на приватное зеркало всего за 1$. Внимание количество ограничено!!!

OK

1+1

iTunes

мы

OK

1

WEB-DLRip

Джокер

Пифагор

Ведьмак / The Witcher сериал

Лицензия

ПШазам

ОК

Оно 2

iTunes

30
pack

Вам бонус

ВАЖНО

!!Акция!!

Alien_RageХит недели

RePack

Resident Evil 21

ИГРА 18+

pack

RePack

jed

!!Акция!!

Alien_Rage

RePack

fifa19

RePack

Assassins Creed: Odyssey

RePack

NEED FOR SPEED™ PAYBACK

4 сезон

9 сезон

Бесстыжие 9 сезон

Все сериалы

все сериалы на PB.wtf

RePack

FAR CRY 5
  

Крестный ход (RTД) [2013 г., Документальный, SATRip, Оригинал] pb.wtf

Крестный ход через торрент pb.wtf

Размер: 541 MB | Добавлен: 4 года 6 мес. назад | Торрент скачан:4 раза
Скачать  

29-06-2015 15:55 Крестный ход Скачать торрент  

Крестный ход
Год выпуска: 2013
Страна: Россия
Жанр: Документальный
Продолжительность: 00:25:53
Перевод: Оригинал

Режиссер: RTД

Описание:

Из всех российских церковных шествий Великорецкий крестный ход считается самым продолжительным маршрутом. В наши дни в нем принимает участие наибольшее число паломников - десятки тысяч человек, приезжающих со всей страны. За 5 дней они преодолевают пешком около 160 километров. Во главе процессии паломники несут Великорецкий чудотворный образ Святителя Николая, обретенный в XV веке.
Съемочная группа отправилась в путь вместе с 40 тысячами православных паломнико

Качество: SATRip
Формат: MPEG
Видео кодек: XviD
Аудио кодек: MP3
Видео: Xvid, 856х480, ~2700 kb/s
Аудио#1: MP3, 2 ch, 192 kb/s
скриншот   скриншот   скриншот   скриншот  

Format : AVI
Format/Info : Audio Video Interleave
File size : 541 MiB
Duration : 25mn 53s
Overall bit rate : 2 922 Kbps
Writing application : MEncoder SVN-r33883(20110719-gcc4.5.2)
Writing library : MPlayer

Video
ID : 0
Format : MPEG-4 Visual
Format profile : Advanced Simple@L5
Format settings, BVOP : 2
Format settings, QPel : No
Format settings, GMC : No warppoints
Format settings, Matrix : Default (H.263)
Codec ID : XVID
Codec ID/Hint : XviD
Duration : 25mn 52s
Bit rate : 2 717 Kbps
Width : 856 pixels
Height : 480 pixels
Display aspect ratio : 16:9
Frame rate : 25.000 fps
Color space : YUV
Chroma subsampling : 4:2:0
Bit depth : 8 bits
Scan type : Progressive
Compression mode : Lossy
Bits/(Pixel*Frame) : 0.265
Stream size : 503 MiB (93%)
Writing library : XviD 1.2.1 (UTC 2008-12-04)

Audio
ID : 1
Format : MPEG Audio
Format version : Version 1
Format profile : Layer 3
Mode : Joint stereo
Mode extension : MS Stereo
Codec ID : 55
Codec ID/Hint : MP3
Duration : 25mn 53s
Bit rate mode : Constant
Bit rate : 192 Kbps
Channel(s) : 2 channels
Sampling rate : 44.1 KHz
Compression mode : Lossy
Delay relative to video : 40ms
Stream size : 35.5 MiB (7%)
Alignment : Aligned on interleaves
Interleave, duration : 26 ms (0.65 video frame)
Interleave, preload duration : 522 ms
Writing library : LAME3.98.4

pb.wtf



Скачать Крестный ход через торрент http://pic.kartinco.top/images/11/x1hbl.jpg Скачать фильм Крестный ход через торрент бесплантно в хорошем качестве Описание: Из всех российских церковных шествий Великорецкий крестный ход считается самым продолжительным маршрутом. В наши дни в нем ... 7 10 6
Info! Золотая раздача, скачанное не засчитывается.
Торрент: Зарегистрирован [2015-06-29 15:55] · скачан: 4 раз
Статус: √ проверено
Размер: 541 MB
Как cкачать? Как скачать Крестный ход через торрент | qTorrent

% Раздел Тема Автор DL S | L
Политика, религия [ 425 MB ] Крестный ход "Львов - Почаев" [2013 документальный DVDRip Оригинал] metanoia Скачать
1 | 0
Политика, религия [ 101 MB ] Крестный ход в Киеве против Евросоюза [2013 документальный WEBRip Оригинал] metanoia Скачать
1 | 0

28-11-2019 20:33  

Отключить всю рекламу на сайте

    Дорогой пользователь! Огромная просьба, поблагодарите релизера, оцените раздачу и оставьте свои комментарий, если Вы скачали Крестный ход через торрент бесплатно! Внесите свою лепту в развитие PiratBit!
    Комментировать посты могут только пользователи прошедшие не сложную регистрацию
    Показать сообщения:    

    Крестный ход через торрент
    Скачать бесплатно Крестный ход
    Крестный ход скачать торрент
    Крестный ход смотреть онлайн
    Cкачать фильм Крестный ход бесплатно
    Крестный ход скачать торрент в хорошем качестве
    Крестный ход смотреть онлайн бесплатно в хорошем качестве


    Вы не можете начинать темы
    Вы не можете отвечать на сообщения
    Вы не можете редактировать свои сообщения
    Вы не можете удалять свои сообщения
    Вы не можете голосовать в опросах
    Вы не можете прикреплять файлы к сообщениям
    Вы можете скачивать файлы