новый адрес
Мега распродажа FORZA HORIZON 4 ULTIMATE+ВСЕ DLC+ОНЛАЙН всего за 499р. 349 руб. (супер цена). Внимание количество ограничено!!!

iTunes

1+1

iTunes

мы

iTunes

1

iTunes

Чернобыль

iTunes

Ральф против интернета

Лицензия

ПШазам

Лицензия

Оно 2

Лицензия

30
pack

ВАЖНО

!!Акция!!

Alien_RageХит недели

RePack

Resident Evil 21

ИГРА 18+

pack

RePack

jed

!!Акция!!

Alien_Rage

RePack

fifa19

RePack

Assassins Creed: Odyssey

RePack

NEED FOR SPEED™ PAYBACK

3 сезон

9 сезон

Бесстыжие 9 сезон

Все сериалы

все сериалы на PB.wtf

RePack

FAR CRY 5
Ребята, катастрофически не хватает 1900р. для оплаты серверов за Октябрь (всвязи с блокировками трафик упал в 3 раза), 1-2р., выручайте.
  

Остров Безымянный (Адольф Бергункер, Михаил Егоров) [1946, СССР, драма, военный, DVDRip-AVC от AVP Studio] pb.wtf

Остров Безымянный через торрент pb.wtf

Размер: 1.09 GB | Добавлен: 4 года 4 мес. назад | Торрент скачан:11 раз
Скачать  

29-06-2015 20:17 Остров Безымянный Скачать торрент  

Остров Безымянный
Год выпуска: 1946
Страна: СССР
Жанр: драма, военный
Длительность: 01:11:37
Перевод: Не требуется
Cубтитры: нет
Режиссер: Адольф Бергункер, Михаил Егоров
В ролях:
Николай Симонов, Юрий Толубеев, Нина Мазаева, В.Волчек, А.Кузнецов, Сергей Филиппов, В.Марьев, Степан Крылов, Алексей Алексеев...
Описание:
Великая Отечественная война. Гитлеровцы подвергают радиостанцию острова Безымянный жестокой бомбардировке и вскоре высаживают десант. Враг беспощадно уничтожает все живое, но радиостанция продолжает работать — на заброшенной шхуне метеоролог Ася установила запасную рацию. Борьбу с захватчиками продолжают советский военный корабль и гидросамолет.

Качество: DVDRip-AVC
Формат: MKV
Видео кодек: AVC
Аудио кодек: AC3
Видео: 696->762x572 (4:3), 25 fps, H264 ~ 1983 kbps avg, 0.199 bit/pixel
Аудио: 48 kHz, Dolby Digital AC3 2.0, 192 kbps
Раздача от:
Общее
Полное имя : Ostrov.Bezimyanniy.1947.DVDRip-AVC_[New-team]_by_AVP_Studio.mkv
Формат : Matroska
Версия формата : Version 2
Размер файла : 1,09 Гбайт
Продолжительность : 1 ч. 11 м.
Общий поток : 2177 Кбит/сек
Дата кодирования : UTC 2015-06-26 06:18:38
Программа кодирования : mkvmerge v6.1.0 ('Old Devil') built on Mar 4 2013 09:10:42
Библиотека кодирования : libebml v1.3.0 + libmatroska v1.4.0

Видео
Идентификатор : 1
Формат : AVC
Формат/Информация : Advanced Video Codec
Профиль формата : High@L4.1
Параметр CABAC формата : Да
Параметр ReFrames формата : 8 кадров
Идентификатор кодека : V_MPEG4/ISO/AVC
Продолжительность : 1 ч. 11 м.
Битрейт : 1983 Кбит/сек
Ширина : 696 пикселей
Высота : 572 пикселя
Соотношение сторон : 4:3
Режим частоты кадров : Постоянный
Частота кадров : 25,000 кадров/сек
Цветовое пространство : YUV
Субдискретизация насыщенности : 4:2:0
Битовая глубина : 8 бит
Тип развёртки : Прогрессивная
Бит/(Пиксели*Кадры) : 0.199
Размер потока : 994 Мбайт (89%)
Библиотека кодирования : x264 core 138 r2356 a1d3d17
Настройки программы : cabac=1 / ref=8 / deblock=1:-2:-1 / analyse=0x3:0x113 / me=umh / subme=10 / psy=1 / psy_rd=1.00:0.05 / mixed_ref=1 / me_range=32 / chroma_me=1 / trellis=2 / 8x8dct=1 / cqm=0 / deadzone=21,11 / fast_pskip=0 / chroma_qp_offset=-3 / threads=6 / lookahead_threads=1 / sliced_threads=0 / nr=0 / decimate=0 / interlaced=0 / bluray_compat=0 / constrained_intra=0 / bframes=8 / b_pyramid=2 / b_adapt=2 / b_bias=0 / direct=3 / weightb=1 / open_gop=0 / weightp=2 / keyint=250 / keyint_min=25 / scenecut=40 / intra_refresh=0 / rc=2pass / mbtree=0 / bitrate=1983 / ratetol=1.0 / qcomp=0.60 / qpmin=0 / qpmax=69 / qpstep=4 / cplxblur=20.0 / qblur=0.5 / ip_ratio=1.40 / pb_ratio=1.30 / aq=1:1.00
Default : Да
Forced : Нет

Аудио
Идентификатор : 2
Формат : AC-3
Формат/Информация : Audio Coding 3
Расширение режима : CM (complete main)
Параметр Endianness формата : Big
Идентификатор кодека : A_AC3
Продолжительность : 1 ч. 11 м.
Вид битрейта : Постоянный
Битрейт : 192 Кбит/сек
Каналы : 2 канала
Расположение каналов : Front: L R
Частота : 48,0 КГц
Битовая глубина : 16 бит
Метод сжатия : С потерями
Размер потока : 98,3 Мбайт (9%)
Default : Да
Forced : Нет
pb.wtf



Скачать Остров Безымянный через торрент http://s020.radikal.ru/i716/1506/86/501c2a3b82c5.png Скачать фильм Остров Безымянный через торрент бесплантно в хорошем качестве Описание: Великая Отечественная война. Гитлеровцы подвергают радиостанцию острова Безымянный жестокой бомбардировке и вскоре высаживают ... 10 10 3
Info! Золотая раздача, скачанное не засчитывается.
Торрент: Зарегистрирован [2015-06-29 20:21] · скачан: 11 раз
Статус: √ проверено
Размер: 1.09 GB
Как cкачать? Как скачать Остров Безымянный через торрент | qTorrent

% Раздел Тема Автор DL S | L
Кино СССР [ 747 MB ] Остров Безымянный [1946 СССР военный DVDRip от AVP Studio] AVP Studio Скачать
1 | 0
Кино СССР [ 1.09 GB ] Остров Безымянный [1946 СССР военный DVDRip от AVP Studio] AVP Studio Скачать
1 | 0


>> Регистрируемся здесь <<






Отзывы и комментарии о схеме читаем и пишем здесь: ---> Отзывы и комментарии о схеме

Новые благодарочки в телеграм довольных пользователей:
скриншот   скриншот   скриншот   скриншот   скриншот
    Дорогой пользователь! Огромная просьба, поблагодарите релизера, оцените раздачу и оставьте свои комментарий, если Вы скачали Остров Безымянный через торрент бесплатно! Внесите свою лепту в развитие PiratBit!
    Комментировать посты могут только пользователи прошедшие не сложную регистрацию
    Показать сообщения:    

    Остров Безымянный через торрент
    Скачать бесплатно Остров Безымянный
    Остров Безымянный скачать торрент
    Остров Безымянный смотреть онлайн
    Cкачать фильм Остров Безымянный бесплатно
    Остров Безымянный скачать торрент в хорошем качестве
    Остров Безымянный смотреть онлайн бесплатно в хорошем качестве


    Вы не можете начинать темы
    Вы не можете отвечать на сообщения
    Вы не можете редактировать свои сообщения
    Вы не можете удалять свои сообщения
    Вы не можете голосовать в опросах
    Вы не можете прикреплять файлы к сообщениям
    Вы можете скачивать файлы