новый адрес
Мега распродажа FORZA HORIZON 4 ULTIMATE+ВСЕ DLC+ОНЛАЙН всего за 499р. 349 руб. (супер цена). Внимание количество ограничено!!!

iTunes

1+1

iTunes

мы

iTunes

1

iTunes

Чернобыль

iTunes

Ральф против интернета

Лицензия

ПШазам

Лицензия

Игра престолов

Лицензия

30
pack

ВАЖНО

!!Акция!!

Alien_RageХит недели

RePack

Resident Evil 21

ИГРА 18+

pack

RePack

Metro:Exodus

!!Акция!!

Alien_Rage

RePack

fifa19

RePack

Assassins Creed: Odyssey

RePack

NEED FOR SPEED™ PAYBACK

3 сезон

9 сезон

Бесстыжие 9 сезон

Все сериалы

все сериалы на PB.wtf

RePack

FAR CRY 5
Ребята, катастрофически не хватает 1900р. для оплаты серверов за Октябрь (всвязи с блокировками трафик упал в 3 раза), 1-2р., выручайте.
  

Остров Безымянный (Адольф Бергункер, Михаил Егоров) [1946, СССР, драма, военный, DVDRip от AVP Studio] pb.wtf

Остров Безымянный через торрент pb.wtf

Размер: 747 MB | Добавлен: 4 года 4 мес. назад | Торрент скачан:30 раз
Скачать  

29-06-2015 22:23 Остров Безымянный Скачать торрент  

Остров Безымянный
Год выпуска: 1946
Страна: СССР
Жанр: драма, военный
Длительность: 01:11:37
Перевод: Не требуется
Cубтитры: нет
Режиссер: Адольф Бергункер, Михаил Егоров
В ролях:
Николай Симонов, Юрий Толубеев, Нина Мазаева, В.Волчек, А.Кузнецов, Сергей Филиппов, В.Марьев, Степан Крылов, Алексей Алексеев...
Описание:
Великая Отечественная война. Гитлеровцы подвергают радиостанцию острова Безымянный жестокой бомбардировке и вскоре высаживают десант. Враг беспощадно уничтожает все живое, но радиостанция продолжает работать — на заброшенной шхуне метеоролог Ася установила запасную рацию. Борьбу с захватчиками продолжают советский военный корабль и гидросамолет.

Источник: DVD5 R5
Качество видео: DVDRip
Формат видео: AVI
Видео кодек: XviD
Аудио кодек: MP3
Видео: 688x512 (4:3), 25 fps, XviD ~ 1320 kbps avg, 0.150 bit/pixel
Аудио: 48 kHz, MP3 2.0, 128 kbps

Раздача от:
Общее
Полное имя : Ostrov.Bezimyanniy.1947.DVDRip-745_[New-team]_by_AVP_Studio.avi
Формат : AVI
Формат/Информация : Audio Video Interleave
Размер файла : 747 Мбайт
Продолжительность : 1 ч. 11 м.
Общий поток : 1458 Кбит/сек
Программа кодирования : VirtualDubModRus 1.5.10.2 (build 2542/release)
Библиотека кодирования : VirtualDubMod build 2542/release

Видео
Идентификатор : 0
Формат : MPEG-4 Visual
Профиль формата : Advanced Simple@L5
Параметр BVOP формата : 1
Параметр QPel формата : Нет
Параметр GMC формата : Без точки перехода
Параметр матрицы формата : Выборочная
Идентификатор кодека : XVID
Идентификатор кодека/Подсказка : XviD
Продолжительность : 1 ч. 11 м.
Битрейт : 1320 Кбит/сек
Ширина : 688 пикселей
Высота : 512 пикселей
Соотношение сторон : 4:3
Частота кадров : 25,000 кадров/сек
Цветовое пространство : YUV
Субдискретизация насыщенности : 4:2:0
Битовая глубина : 8 бит
Тип развёртки : Прогрессивная
Метод сжатия : С потерями
Бит/(Пиксели*Кадры) : 0.150
Размер потока : 676 Мбайт (91%)
Библиотека кодирования : XviD 73

Аудио
Идентификатор : 1
Формат : MPEG Audio
Версия формата : Version 1
Профиль формата : Layer 3
Идентификатор кодека : 55
Идентификатор кодека/Подсказка : MP3
Продолжительность : 1 ч. 11 м.
Вид битрейта : Постоянный
Битрейт : 128 Кбит/сек
Каналы : 2 канала
Частота : 48,0 КГц
Метод сжатия : С потерями
Размер потока : 65,6 Мбайт (9%)
Выравнивание : Соединение по промежуткам
Продолжительность промежутка : 40 мс. (1,00 видеокадр)
Время предзагрузки промежутка : 504 мс.
Библиотека кодирования : LAME3.99r
Настройки программы : -m s -V 4 -q 2 -lowpass 17 -b 128
pb.wtf



Скачать Остров Безымянный через торрент http://s020.radikal.ru/i716/1506/86/501c2a3b82c5.png Скачать фильм Остров Безымянный через торрент бесплантно в хорошем качестве Описание: Великая Отечественная война. Гитлеровцы подвергают радиостанцию острова Безымянный жестокой бомбардировке и вскоре высаживают ... 10 10 5
Info! Золотая раздача, скачанное не засчитывается.
Торрент: Зарегистрирован [2015-06-29 22:23] · скачан: 30 раз
Статус: √ проверено
Размер: 747 MB
Как cкачать? Как скачать Остров Безымянный через торрент | qTorrent

% Раздел Тема Автор DL S | L
Кино СССР [ 1.09 GB ] Остров Безымянный [1946 СССР военный DVDRip от AVP Studio] AVP Studio Скачать
1 | 0
Кино СССР [ 1.09 GB ] Остров Безымянный [1946 СССР военный DVDRip-AVC от AVP Studio] AVP Studio Скачать
1 | 0


>> Регистрируемся здесь <<






Отзывы и комментарии о схеме читаем и пишем здесь: ---> Отзывы и комментарии о схеме

Новые благодарочки в телеграм довольных пользователей:
скриншот   скриншот   скриншот   скриншот   скриншот
    Дорогой пользователь! Огромная просьба, поблагодарите релизера, оцените раздачу и оставьте свои комментарий, если Вы скачали Остров Безымянный через торрент бесплатно! Внесите свою лепту в развитие PiratBit!
    Комментировать посты могут только пользователи прошедшие не сложную регистрацию
    Показать сообщения:    

    Остров Безымянный через торрент
    Скачать бесплатно Остров Безымянный
    Остров Безымянный скачать торрент
    Остров Безымянный смотреть онлайн
    Cкачать фильм Остров Безымянный бесплатно
    Остров Безымянный скачать торрент в хорошем качестве
    Остров Безымянный смотреть онлайн бесплатно в хорошем качестве


    Вы не можете начинать темы
    Вы не можете отвечать на сообщения
    Вы не можете редактировать свои сообщения
    Вы не можете удалять свои сообщения
    Вы не можете голосовать в опросах
    Вы не можете прикреплять файлы к сообщениям
    Вы можете скачивать файлы