Ссылка на приватное зеркало нашего сайта всего за 1$. Внимание количество ограничено!!!

2 сезон

iTunes

1 сезон

1

iTunes

iTunes

iTunes

1 сезон

RePack

30

ИГРА 18+

pack

ВАЖНО

!!Акция!!

Alien_RageХит недели

RePack

MK11
pack

Забери бонус

RePack

jed

!!Акция!!

Alien_Rage

RePack

fifa19

RePack

Assassins Creed: Odyssey

RePack

NEED FOR SPEED™ PAYBACK

4 сезон

9 сезон

Бесстыжие 9 сезон

Все сериалы

все сериалы на PB.wtf

RePack

FAR CRY 5
  

Цимбелин / Cymbeline (Майкл Алмерейда ) [2014, драма, BDRip 1080p] DUB Лицензия pb.wtf

Цимбелин через торрент pb.wtf

Размер: 8.63 GB | Добавлен: 5 лет 3 мес. назад | Торрент скачан:88 раз
Скачать  

30-06-2015 07:19 Цимбелин Скачать торрент  


Цимбелин / Cymbeline
«Короли, королевы, байкеры, война»

ИНФОРМАЦИЯ:
Год выпуска: 2014
Страна: США
Жанр: драма
Продолжительность: 01:38:31
Перевод: Дубляж - [Лицензия]
Режиссер: Майкл Алмерейда

В Ролях:


Эд Харрис (Cymbeline), Дакота Джонсон (Imogen), Пенн Бэджли (Posthumus), Антон Ельчин (Cloten), Итан Хоук (Iachimo), Милла Йовович (The Queen), Джон Легуизамо (Pisanio), Делрой Линдо (Belarius), Вонди Куртис-Холл (Caius Lucius), Питер Герети (Dr. Cornelius), Кевин Корригэн (The Hangman), Джеймс Рэнсон (Philario)

Описание:
Современный пересказ одноименной трагедии Уильяма Шекспира. Действие перенесено в наши дни. Цимбелин, лидер байкеров-наркоторговцев, объявляет войну местным продажным полицейским. Его дочери, Имогене и ее возлюбленному Постуму приходится самим сражаться за свою любовь.

  • Мировая премьера:3 сентября 2014

    ТЕХ.ДАННЫЕ:

    Качество: BDRip 1080p
    Формат: MKV
    Видео кодек: AVC
    Аудио кодек: AC3, DTS-HD
    Видео: AVC, 1920x1040 (16:9), 10278 kbps, 23,976 fps, 0,215 bpp
    Аудио №1: русский / AC3 / 5.1 / 48 kHz / 448 kbps / 16 bit ||
    Аудио №2: английский / DTS-HD / 5.1 / 48 kHz / 1560 kbps / 24 bit (Core: 5.1 / 48 kHz / 1510 kbps / 24 bit)
    Навигация по главам: есть



    Код:

    General
    Unique ID                                : 243291413016073205519531439392949069523 (0xB70838C4DEA7159D86A95A04373CE6D3)
    Complete name                            : D:\Торенты\C1mbel1n.2014.D.BDRip.1080p.mkv
    Format                                   : Matroska
    Format version                           : Version 4 / Version 2
    File size                                : 8.63 GiB
    Duration                                 : 1h 38mn
    Overall bit rate mode                    : Variable
    Overall bit rate                         : 12.5 Mbps
    Movie name                               : Cymbeline.2014.D.BDRip.1080p.ELEKTRI4KA.uniongang.tv [Carl Gau?]
    Encoded date                             : UTC 2015-06-29 14:05:04
    Writing application                      : mkvmerge v6.9.1 ('Blue Panther') 64bit built on Apr 18 2014 18:23:38
    Writing library                          : libebml v1.3.0 + libmatroska v1.4.1

    Video
    ID                                       : 1
    Format                                   : AVC
    Format/Info                              : Advanced Video Codec
    Format profile                           : High@L4.1
    Format settings, CABAC                   : Yes
    Format settings, ReFrames                : 4 frames
    Codec ID                                 : V_MPEG4/ISO/AVC
    Duration                                 : 1h 38mn
    Bit rate                                 : 10.3 Mbps
    Width                                    : 1 920 pixels
    Height                                   : 1 040 pixels
    Display aspect ratio                     : 16:9
    Frame rate                               : 23.976 fps
    Color space                              : YUV
    Chroma subsampling                       : 4:2:0
    Bit depth                                : 8 bits
    Scan type                                : Progressive
    Bits/(Pixel*Frame)                       : 0.215
    Stream size                              : 7.07 GiB (82%)
    Title                                    : Cymbeline.2014.D.BDRip.1080p.ELEKTRI4KA.uniongang.tv [Carl Gau?]
    Writing library                          : x264 core 146 r2538 121396c
    Encoding settings                        : cabac=1 / ref=4 / deblock=1:-2:-2 / analyse=0x3:0x113 / me=umh / subme=10 / psy=1 / psy_rd=1.00:0.10 / mixed_ref=1 / me_range=48 / chroma_me=1 / trellis=2 / 8x8dct=1 / cqm=0 / deadzone=21,11 / fast_pskip=0 / chroma_qp_offset=-3 / threads=12 / lookahead_threads=1 / sliced_threads=0 / nr=0 / decimate=1 / interlaced=0 / bluray_compat=0 / constrained_intra=0 / bframes=6 / b_pyramid=2 / b_adapt=2 / b_bias=0 / direct=3 / weightb=1 / open_gop=0 / weightp=2 / keyint=250 / keyint_min=23 / scenecut=40 / intra_refresh=0 / rc_lookahead=120 / rc=crf / mbtree=1 / crf=16.5 / qcomp=0.65 / qpmin=0 / qpmax=69 / qpstep=4 / vbv_maxrate=30000 / vbv_bufsize=38000 / crf_max=0.0 / nal_hrd=none / filler=0 / ip_ratio=1.40 / aq=2:1.00
    Default                                  : Yes
    Forced                                   : No
    Color primaries                          : BT.709-5, BT.1361, IEC 61966-2-4, SMPTE RP177
    Transfer characteristics                 : BT.709-5, BT.1361
    Matrix coefficients                      : BT.709-5, BT.1361, IEC 61966-2-4 709, SMPTE RP177

    Audio #1
    ID                                       : 2
    Format                                   : AC-3
    Format/Info                              : Audio Coding 3
    Mode extension                           : CM (complete main)
    Codec ID                                 : A_AC3
    Duration                                 : 1h 38mn
    Bit rate mode                            : Constant
    Bit rate                                 : 448 Kbps
    Channel(s)                               : 6 channels
    Channel positions                        : Front: L C R, Side: L R, LFE
    Sampling rate                            : 48.0 KHz
    Bit depth                                : 16 bits
    Compression mode                         : Lossy
    Stream size                              : 316 MiB (4%)
    Title                                    : Cymbeline.2014.D.BDRip.1080p.ELEKTRI4KA.uniongang.tv [Carl Gau?]
    Language                                 : Russian
    Default                                  : Yes
    Forced                                   : No

    Audio #2
    ID                                       : 3
    Format                                   : DTS
    Format/Info                              : Digital Theater Systems
    Format profile                           : MA / Core
    Codec ID                                 : A_DTS
    Duration                                 : 1h 38mn
    Bit rate mode                            : Variable
    Bit rate                                 : 1 561 Kbps / 1 510 Kbps
    Channel(s)                               : 6 channels
    Channel positions                        : Front: L C R, Side: L R, LFE
    Sampling rate                            : 48.0 KHz
    Bit depth                                : 24 bits
    Compression mode                         : Lossless / Lossy
    Title                                    : Cymbeline.2014.D.BDRip.1080p.ELEKTRI4KA.uniongang.tv [Carl Gau?]
    Language                                 : English
    Default                                  : No
    Forced                                   : No

    Menu
    00:00:00.000                             : en:00:00:00.000
    00:06:57.792                             : en:00:06:57.792
    00:10:59.450                             : en:00:10:59.450
    00:17:17.828                             : en:00:17:17.828
    00:27:57.384                             : en:00:27:57.384
    00:30:47.971                             : en:00:30:47.971
    00:35:09.649                             : en:00:35:09.649
    00:41:30.655                             : en:00:41:30.655
    00:49:24.086                             : en:00:49:24.086
    00:54:31.143                             : en:00:54:31.143
    01:02:51.434                             : en:01:02:51.434
    01:07:28.002                             : en:01:07:28.002
    01:14:28.798                             : en:01:14:28.798
    01:21:20.000                             : en:01:21:20.000
    01:25:39.009                             : en:01:25:39.009
    01:32:20.785                             : en:01:32:20.785

    Скриншоты:


    © Оформление by Ворон
    pb.wtf



  • Скачать Цимбелин через торрент http://pic.kartinco.top/images/6/ordi9.jpg Скачать фильм Цимбелин через торрент бесплантно в хорошем качестве Описание: Современный пересказ одноименной трагедии Уильяма Шекспира. Действие перенесено в наши дни. Цимбелин, лидер ... 10 10 5
    Info! Серебряная раздача, засчитывается только 50% скачанного.
    Торрент: Зарегистрирован [2015-06-30 07:19] · скачан: 88 раз
    Статус: √ проверено
    Размер: 8.63 GB
    Как cкачать? Как скачать Цимбелин через торрент | qTorrent

    % Раздел Тема Автор DL S | L
    Фильмы (Blu-ray, BD-Remux, HDDVD) [ 16.1 GB ] Цимбелин / Cymbeline [2014 BD Remux от NovaLan] DUB Ворон Скачать
    1 | 0
    Фильмы 2015 [DVDrip, WEB-DLRip, HDrip] [ 2.18 GB ] Цимбелин / Cymbeline [2015 BDRip-AVC] DUB potroks Скачать
    1 | 0
    Фильмы 2014 [DVDrip, WEB-DLRip, HDrip] [ 2.05 GB ] Цимбелин / Cymbeline [2014 HDRip] DUB Ворон Скачать
    1 | 0

    28-11-2019 20:33  

    Отключить всю рекламу на сайте

    01-07-2015 08:01 Цимбелин Скачать торрент  

    Актерский состав потрясает.

    IMDb: 4.10pb.wtf



      Дорогой пользователь! Огромная просьба, поблагодарите релизера, оцените раздачу и оставьте свои комментарий, если Вы скачали Цимбелин через торрент бесплатно! Внесите свою лепту в развитие PiratBit!
      Комментировать посты могут только пользователи прошедшие не сложную регистрацию
      Показать сообщения:    

      Цимбелин через торрент
      Скачать бесплатно Цимбелин
      Цимбелин скачать торрент
      Цимбелин смотреть онлайн
      Cкачать фильм Цимбелин бесплатно
      Цимбелин скачать торрент в хорошем качестве
      Цимбелин смотреть онлайн бесплатно в хорошем качестве


      Вы не можете начинать темы
      Вы не можете отвечать на сообщения
      Вы не можете редактировать свои сообщения
      Вы не можете удалять свои сообщения
      Вы не можете голосовать в опросах
      Вы не можете прикреплять файлы к сообщениям
      Вы можете скачивать файлы