новый адрес пиратбит piratbit
Мега распродажа FORZA HORIZON 4 ULTIMATE+ВСЕ DLC+ОНЛАЙН всего за 499р. 349 руб. (супер цена). Внимание количество ограничено!!!

iTunes

1+1

iTunes

мы

iTunes

1

iTunes

Чернобыль

iTunes

Ральф против интернета

Лицензия

ПШазам

Лицензия

Игра престолов

Лицензия

30
pack

ВАЖНО

!!Акция!!

Alien_RageХит недели

RePack

Resident Evil 21

ИГРА 18+

pack

RePack

Metro:Exodus

!!Акция!!

Alien_Rage

RePack

fifa19

RePack

Assassins Creed: Odyssey

RePack

NEED FOR SPEED™ PAYBACK

3 сезон

9 сезон

Бесстыжие 9 сезон

Все сериалы

все сериалы на PB.wtf

RePack

FAR CRY 5
Ребята, катастрофически не хватает 1900р. для оплаты серверов за Октябрь (всвязи с блокировками трафик упал в 3 раза), 1-2р., выручайте.
  

В полосе прибоя (Ольгерд Воронцов) [1990, СССР, боевик, SATRip от AVP Studio] pb.wtf

В полосе прибоя через торрент pb.wtf

Раздают: 2 [ 0 KB/s ]
Размер: 746 MB | Добавлен: 4 года 4 мес. назад | Торрент скачан:45 раз
Скачать  

30-06-2015 08:35 В полосе прибоя Скачать торрент  

В полосе прибояСтрана: СССР
Производство: Свердловская киностудия

Жанр: боевик
Год выпуска: 1990
Продолжительность: 01:23:49

Перевод: Не требуется
Cубтитры: нет
Оригинальная аудиодорожка: русский

Режиссер: Ольгерд Воронцов

В ролях:
Владимир Кузнецов, Андрей Болтнев, Ирина Цывина, Валерий Баринов, Юрий Астафьев, Татьяна Панкова, Владимир Кабалин, Рим Аюпов, Елена Драпеко, Валентина Березуцкая, Изиль Заблудовский, Валерий Лысенков, Леонид Неведомский, Семен Фурман...

Описание:
В провинциальном городе совершено вооруженное нападение на инкассаторов, в перестрелке погибает сотрудник МВД. Из Москвы прибывает следователь, оказавшийся близким другом погибшего. Жестокость совершенного убийства наводит его на мысль о возможной мести. Городские органы не рады этому приезду и стремятся как можно быстрей завершить дело, хотя бы и ценой ошибки. Но задача друга найти истинного убийцу, даже, несмотря на то, что расследование ему приходится вести практически одному.

Источник: DVB
Качество видео: SATRip
Формат видео: AVI
Видео кодек: XviD
Аудио кодек: AC3
Видео: 704x400 (16:9), 25 fps, XviD ~ 1106 kbps avg, 0.157 bit/pixel
Аудио: 48 kHz, MP3 2.0, 128 kbps

Раздача от:
Общее
Полное имя : V.polose.priboya.1990.SATRip-745_[New-team]_by_AVP_Studio.avi
Формат : AVI
Формат/Информация : Audio Video Interleave
Размер файла : 746 Мбайт
Продолжительность : 1 ч. 23 м.
Общий поток : 1243 Кбит/сек
Программа кодирования : VirtualDubModRus 1.5.10.2 (build 2542/release)
Библиотека кодирования : VirtualDubMod build 2542/release

Видео
Идентификатор : 0
Формат : MPEG-4 Visual
Профиль формата : Advanced Simple@L5
Параметр BVOP формата : 1
Параметр QPel формата : Нет
Параметр GMC формата : Без точки перехода
Параметр матрицы формата : Выборочная
Идентификатор кодека : XVID
Идентификатор кодека/Подсказка : XviD
Продолжительность : 1 ч. 23 м.
Битрейт : 1106 Кбит/сек
Ширина : 704 пикселя
Высота : 400 пикселей
Соотношение сторон : 16:9
Частота кадров : 25,000 кадров/сек
Цветовое пространство : YUV
Субдискретизация насыщенности : 4:2:0
Битовая глубина : 8 бит
Тип развёртки : Прогрессивная
Метод сжатия : С потерями
Бит/(Пиксели*Кадры) : 0.157
Размер потока : 663 Мбайт (89%)
Библиотека кодирования : XviD 73

Аудио
Идентификатор : 1
Формат : MPEG Audio
Версия формата : Version 1
Профиль формата : Layer 3
Идентификатор кодека : 55
Идентификатор кодека/Подсказка : MP3
Продолжительность : 1 ч. 23 м.
Вид битрейта : Постоянный
Битрейт : 128 Кбит/сек
Каналы : 2 канала
Частота : 48,0 КГц
Метод сжатия : С потерями
Размер потока : 76,7 Мбайт (10%)
Выравнивание : Соединение по промежуткам
Продолжительность промежутка : 40 мс. (1,00 видеокадр)
Время предзагрузки промежутка : 504 мс.
Библиотека кодирования : LAME3.99r
Настройки программы : -m s -V 4 -q 2 -lowpass 17 -b 128
pb.wtf



Скачать В полосе прибоя через торрент http://s017.radikal.ru/i433/1506/a0/bb36a08ce0d0.png Скачать фильм В полосе прибоя через торрент бесплантно в хорошем качестве Описание:В провинциальном городе совершено вооруженное нападение на инкассаторов, в перестрелке погибает сотрудник МВД. Из Москвы прибывает ... 8.8 10 4
Info! Золотая раздача, скачанное не засчитывается.
Торрент: Зарегистрирован [2015-06-30 08:35] · скачан: 45 раз
Статус: √ проверено
Размер: 746 MB
Как cкачать? Как скачать В полосе прибоя через торрент | qTorrent

% Раздел Тема Автор DL S | L
Кино СССР [ 1.09 GB ] В полосе прибоя [1990 СССР SATRip-AVC от AVP Studio] AVP Studio Скачать
1 | 0
Кино СССР [ 1.09 GB ] В полосе прибоя [1990 СССР SATRip от AVP Studio] AVP Studio Скачать
1 | 0


>> Регистрируемся здесь <<






Отзывы и комментарии о схеме читаем и пишем здесь: ---> Отзывы и комментарии о схеме

Новые благодарочки в телеграм довольных пользователей:
скриншот   скриншот   скриншот   скриншот   скриншот
    Дорогой пользователь! Огромная просьба, поблагодарите релизера, оцените раздачу и оставьте свои комментарий, если Вы скачали В полосе прибоя через торрент бесплатно! Внесите свою лепту в развитие PiratBit!
    Комментировать посты могут только пользователи прошедшие не сложную регистрацию
    Показать сообщения:    

    В полосе прибоя через торрент
    Скачать бесплатно В полосе прибоя
    В полосе прибоя скачать торрент
    В полосе прибоя смотреть онлайн
    Cкачать фильм В полосе прибоя бесплатно
    В полосе прибоя скачать торрент в хорошем качестве
    В полосе прибоя смотреть онлайн бесплатно в хорошем качестве


    Вы не можете начинать темы
    Вы не можете отвечать на сообщения
    Вы не можете редактировать свои сообщения
    Вы не можете удалять свои сообщения
    Вы не можете голосовать в опросах
    Вы не можете прикреплять файлы к сообщениям
    Вы можете скачивать файлы