Ссылка на приватное зеркало нашего сайта всего за 1$. Внимание количество ограничено!!!

2 сезон

iTunes

1 сезон

1

iTunes

iTunes

iTunes

1 сезон

RePack

30

ИГРА 18+

pack

ВАЖНО

!!Акция!!

Alien_RageХит недели

RePack

MK11
pack

Забери бонус

RePack

jed

!!Акция!!

Alien_Rage

RePack

fifa19

RePack

Assassins Creed: Odyssey

RePack

NEED FOR SPEED™ PAYBACK

4 сезон

9 сезон

Бесстыжие 9 сезон

Все сериалы

все сериалы на PB.wtf

RePack

FAR CRY 5
  

Ярость / Fury (Дэвид Эйр / David Ayer) [2014, США, Китай, Великобритания, боевик, драма, военный, BDRip-AVC 60fps, Дубляж] от R.G. HD-Films pb.wtf

Ярость через торрент pb.wtf

Раздают: 2 [ 0 KB/s ]
Размер: 3.97 GB | Добавлен: 5 лет 3 мес. назад | Торрент скачан:878 раз
Скачать  

30-06-2015 13:31 Ярость Скачать торрент  


Название: Ярость
Оригинальное название: Fury
Год выпуска: 2014
Страна: США, Китай, Великобритания
Жанр: боевик, драма, военный
Продолжительность: 02:14:38
Перевод: Дубляж
Субтитры: русские (Форсированные), русские (Полные), английские (Полные)
Режиссер: Дэвид Эйр / David Ayer
В ролях: Брэд Питт (Don «Wardaddy» Collier), Логан Лерман (Norman Ellison), Шайа ЛаБаф (Boyd «Bible» Swan), Майкл Пенья (Trini «Gordo» Garcia), Джон Бернтал (Grady «Coon-Ass» Travis), Джейсон Айзекс (Captain Waggoner), Джим Пэррак (Sergeant Binkowski), Брэд Уильям Хенке (Sergeant Davis), Кевин Вэнс (Sergeant Peterson), Завьер Сэмюэл (Lieutenant Parker), Анамария Маринка (Irma), Алисия фон Риттберг (Emma)
Описание:
Стоит апрель 1945 года, и победа над немцами уже близка: союзники уверенно продвигаются вглубь вражеской территории, и оказываемое им сопротивление становится слабее день ото дня. Это, однако, совсем не значит, что на пути к победе союзные войска не потеряют еще множество людей, и многие солдаты сознают, что смерть ждет на расстоянии вытянутой руки. Среди закаленных в бою пессимистов, каждый день ведущих ожесточенные бои во имя победы, экипаж танка, на чьем дуле намалевано слово «Ярость».
Командир экипажа, известный как Уордэдди, воевавший с нацистскими войсками сначала в Африке, а потом в Европе, преследует одну цель - выжить в войне и сохранить жизнь своим людям. Этот относительно амбициозный план оказывается под угрозой, когда к его экипажу присоединяется зеленый новобранец Норман Эллисон, никогда раньше не воевавший и еще не успевший привыкнуть к тому, что должен быстро и без колебаний обрывать человеческие жизни. Надежда выжить становится совсем призрачной, когда экипажу «Ярости» приходится принять участие в самоубийственной миссии.
Рейтинг
kinopoisk.ru: 7.449 (58 488)
imdb.com: 7.60 (217 560)
MPAA: R - Лицам до 17 лет обязательно присутствие взрослого
Качество: BDRip-AVC 60fps
Формат: MKV
Видео кодек: AVC
Аудио кодек:AC3
Видео: AVC, 1024x432 (2.35:1), 3575 kbps, 59,940 fps, 0,135 bpp
Аудио: русский / AC3 / 5.1 / 48 kHz / 640 kbps / 16 bit |Дубляж|
Навигация по главам: есть

General
Unique ID : 245052798219947435404210343934470716117 (0xB85B73C3B1119C04A3BF051FA578FAD5)
Complete name : A:\Фильмы\Ярость BDRip-AVC 60fps R.G. HD-Films.mkv
Format : Matroska
Format version : Version 4 / Version 2
File size : 3.97 GiB
Duration : 2h 14mn
Overall bit rate : 4 219 Kbps
Movie name : Tiberiumsun69
Encoded date : UTC 2015-06-29 14:57:10
Writing application : mkvmerge v7.9.0 ('Birds') 64bit
Writing library : libebml v1.3.1 + libmatroska v1.4.2
Attachment : Yes

Video
ID : 1
Format : AVC
Format/Info : Advanced Video Codec
Format profile : High@L4.1
Format settings, CABAC : Yes
Format settings, ReFrames : 4 frames
Codec ID : V_MPEG4/ISO/AVC
Duration : 2h 14mn
Bit rate : 3 575 Kbps
Width : 1 024 pixels
Height : 432 pixels
Display aspect ratio : 2.35:1
Frame rate : 59.940 fps
Color space : YUV
Chroma subsampling : 4:2:0
Bit depth : 8 bits
Scan type : Progressive
Bits/(Pixel*Frame) : 0.135
Stream size : 3.29 GiB (83%)
Title : Tiberiumsun69
Writing library : x264 core 146 r2538 121396c
Encoding settings : cabac=1 / ref=4 / deblock=1:0:0 / analyse=0x3:0x113 / me=umh / subme=9 / psy=1 / psy_rd=1.00:0.10 / mixed_ref=1 / me_range=32 / chroma_me=1 / trellis=2 / 8x8dct=1 / cqm=0 / deadzone=21,11 / fast_pskip=0 / chroma_qp_offset=-3 / threads=12 / lookahead_threads=3 / sliced_threads=0 / nr=0 / decimate=1 / interlaced=0 / bluray_compat=0 / constrained_intra=0 / bframes=16 / b_pyramid=2 / b_adapt=2 / b_bias=0 / direct=3 / weightb=1 / open_gop=0 / weightp=2 / keyint=600 / keyint_min=59 / scenecut=40 / intra_refresh=0 / rc_lookahead=60 / rc=2pass / mbtree=1 / bitrate=3575 / ratetol=1.0 / qcomp=0.60 / qpmin=0 / qpmax=69 / qpstep=4 / cplxblur=20.0 / qblur=0.5 / vbv_maxrate=50000 / vbv_bufsize=62500 / nal_hrd=none / filler=0 / ip_ratio=1.40 / aq=1:1.00
Language : English
Default : Yes
Forced : No

Audio
ID : 2
Format : AC-3
Format/Info : Audio Coding 3
Mode extension : CM (complete main)
Codec ID : A_AC3
Duration : 2h 14mn
Bit rate mode : Constant
Bit rate : 640 Kbps
Channel(s) : 6 channels
Channel positions : Front: L C R, Side: L R, LFE
Sampling rate : 48.0 KHz
Bit depth : 16 bits
Compression mode : Lossy
Stream size : 616 MiB (15%)
Title : Дубляж
Language : Russian
Default : Yes
Forced : No

Text #1
ID : 3
Format : UTF-8
Codec ID : S_TEXT/UTF8
Codec ID/Info : UTF-8 Plain Text
Title : Форсированные
Language : Russian
Default : Yes
Forced : No

Text #2
ID : 4
Format : UTF-8
Codec ID : S_TEXT/UTF8
Codec ID/Info : UTF-8 Plain Text
Title : Полные
Language : Russian
Default : No
Forced : No

Text #3
ID : 5
Format : UTF-8
Codec ID : S_TEXT/UTF8
Codec ID/Info : UTF-8 Plain Text
Title : Полные
Language : English
Default : No
Forced : No

Menu
00:00:00.000 : :Chapter 01
00:07:58.227 : :Chapter 02
00:20:24.681 : :Chapter 03
00:26:38.930 : :Chapter 04
00:37:26.035 : :Chapter 05
00:43:24.059 : :Chapter 06
00:51:59.407 : :Chapter 07
01:01:20.301 : :Chapter 08
01:13:46.547 : :Chapter 09
01:18:29.705 : :Chapter 10
01:26:21.801 : :Chapter 11
01:29:50.426 : :Chapter 12
01:35:39.191 : :Chapter 13
01:48:12.110 : :Chapter 14
01:57:49.979 : :Chapter 15
02:00:41.609 : :Chapter 16
Просьба к переливающим на другие сайты, в оформлении указывайте пожалуйста авторство группы
Поблагодарить релизера! Авторская группа в ВК
pb.wtf



Скачать Ярость через торрент http://i70.fastpic.ru/big/2015/0630/82/da425a02139a6a10eb9a6645921ae482.png Скачать фильм Ярость через торрент бесплантно в хорошем качестве Описание: Стоит апрель 1945 года, и победа над немцами уже близка: союзники уверенно продвигаются вглубь вражеской территории, и ... 9.6 10 32
Info! Золотая раздача, скачанное не засчитывается.
Торрент: Зарегистрирован [2015-06-30 13:31] · скачан: 878 раз
Статус: √ проверено
Размер: 3.97 GB
Как cкачать? Как скачать Ярость через торрент | qTorrent

% Раздел Тема Автор DL S | L
Фильмы (HD 720p, 1080p) (48-60 fps) [ 4.34 GB ] Слепая ярость / Blind Fury [1989 BDRip 720p / 60 FPS ] от R.G. HD-Films slaventi-69 Скачать
1 | 0


Последний раз редактировалось: Tiberiumsun69 (2018-02-09 08:10), всего редактировалось 1 раз

28-11-2019 20:33  

Отключить всю рекламу на сайте

04-10-2015 18:21 Ярость Скачать торрент  

Фильм просто потрясный .pb.wtf



08-10-2015 17:53 Ярость Скачать торрент  

Я так и не въехал как на этом сайте сделать раздачу золотой?pb.wtf



    Дорогой пользователь! Огромная просьба, поблагодарите релизера, оцените раздачу и оставьте свои комментарий, если Вы скачали Ярость через торрент бесплатно! Внесите свою лепту в развитие PiratBit!
    Комментировать посты могут только пользователи прошедшие не сложную регистрацию
    Показать сообщения:    

    Ярость через торрент
    Скачать бесплатно Ярость
    Ярость скачать торрент
    Ярость смотреть онлайн
    Cкачать фильм Ярость бесплатно
    Ярость скачать торрент в хорошем качестве
    Ярость смотреть онлайн бесплатно в хорошем качестве


    Вы не можете начинать темы
    Вы не можете отвечать на сообщения
    Вы не можете редактировать свои сообщения
    Вы не можете удалять свои сообщения
    Вы не можете голосовать в опросах
    Вы не можете прикреплять файлы к сообщениям
    Вы можете скачивать файлы