Marvel's Avengers Deluxe Edition (супер цена) 159р. Внимание количество ограничено!!!

2 сезон

iTunes

iTunes

1

iTunes

iTunes

iTunes

WEBRip

iTunes

30
pack

Новость дня

ВАЖНО

!!Акция!!

Alien_RageХит недели

RePack

Horizon Zero Dawn

ИГРА 18+

pack

RePack

jed

!!Акция!!

Alien_Rage

RePack

fifa19

RePack

Assassins Creed: Odyssey

RePack

NEED FOR SPEED™ PAYBACK

4 сезон

9 сезон

Бесстыжие 9 сезон

Все сериалы

все сериалы на PB.wtf

RePack

FAR CRY 5
  

Фотограф / Fotograf (Вальдемар Кшистек ) [2014, боевик, триллер, DVDRip, VO] pb.wtf

Фотограф через торрент pb.wtf

Размер: 1.46 GB | Добавлен: 5 лет 2 мес. назад | Торрент скачан:349 раз
Скачать  

30-06-2015 20:25 Фотограф Скачать торрент  


Фотограф / Fotograf


ИНФОРМАЦИЯ:
Год выпуска: 2014
Страна: Польша
Жанр: боевик, триллер
Продолжительность: 01:47:16
Перевод: Любительский (одноголосый) [Павел Морозов aka PashaUp]
Режиссер: Вальдемар Кшистек

В Ролях:


Вадим Афанасьев (Archivist), Георгий Ангелов (Gremina's Husband), Татьяна Арнтгольц (Natasza), Алёна Бабенко (Mother), Oleg Bakhrutdinov (Student), Александр Балуев (Lebiadkin), Margarita Baraniuk (Marina), Edwin Bazanski (Driver of FSB Car), Соня Бохосевич (Przybylska), Агата Бузек (Kasia Przybylska), Артур Хамски (Photographer), Siergiej Darij (Psychiatrist)

Описание:
Фотограф - это неуловимый серийный убийца, действующий в наши дни в Москве. Каждый раз он оставляет на месте преступления пронумерованные метки, аналогичные тем, что используют полицейские на месте преступления. Расследование приводит в старые бараки Красной армии в Легнице и к событиям, произошедшим там в 70-е годы.

  • Мировая премьера:17 сентября 2014

    ТЕХ.ДАННЫЕ:
    Качество: DVDRip
    Формат: AVI
    Видео кодек: XviD
    Аудио кодек: AC3
    Видео: XviD, 720x304 (2.35:1), 1675 kbps, 25 fps, 0,306 bpp
    Аудио: AC3 / 2.0 / 48 kHz / 192 kbps / 16 bit

    Автор рипа - ivandubskoj


    Код:

    General
    Complete name                            : D:\Торенты\Fotograf.2014.DVDRip.avi
    Format                                   : AVI
    Format/Info                              : Audio Video Interleave
    File size                                : 1.46 GiB
    Duration                                 : 1h 47mn
    Overall bit rate                         : 1 954 Kbps
    Writing application                      : VirtualDubMod 1.5.10.3 | www.virtualdub-fr.org || (build 2550/release)
    Writing library                          : VirtualDubMod build 2550/release
    Copyright                                : rip by ivandubskoj

    Video
    ID                                       : 0
    Format                                   : MPEG-4 Visual
    Format profile                           : Advanced Simple@L5
    Format settings, BVOP                    : 1
    Format settings, QPel                    : No
    Format settings, GMC                     : No warppoints
    Format settings, Matrix                  : Custom
    Codec ID                                 : XVID
    Codec ID/Hint                            : XviD
    Duration                                 : 1h 47mn
    Bit rate                                 : 1 676 Kbps
    Width                                    : 720 pixels
    Height                                   : 304 pixels
    Display aspect ratio                     : 2.35:1
    Frame rate                               : 25.000 fps
    Color space                              : YUV
    Chroma subsampling                       : 4:2:0
    Bit depth                                : 8 bits
    Scan type                                : Progressive
    Compression mode                         : Lossy
    Bits/(Pixel*Frame)                       : 0.306
    Stream size                              : 1.26 GiB (86%)
    Writing library                          : XviD 73

    Audio
    ID                                       : 1
    Format                                   : AC-3
    Format/Info                              : Audio Coding 3
    Mode extension                           : CM (complete main)
    Codec ID                                 : 2000
    Duration                                 : 1h 47mn
    Bit rate mode                            : Constant
    Bit rate                                 : 192 Kbps
    Channel(s)                               : 2 channels
    Channel positions                        : Front: L R
    Sampling rate                            : 48.0 KHz
    Bit depth                                : 16 bits
    Compression mode                         : Lossy
    Stream size                              : 147 MiB (10%)
    Alignment                                : Split accross interleaves

    Скриншоты:


    © Оформление by Ворон
    pb.wtf



  • Скачать Фотограф через торрент http://pic.kartinco.top/images/6/ordi9.jpg Скачать фильм Фотограф через торрент бесплантно в хорошем качестве Описание: Фотограф - это неуловимый серийный убийца, действующий в наши дни в Москве. Каждый раз он оставляет на месте преступления ... 9.9 10 14
    Торрент: Зарегистрирован [2015-06-30 20:25] · скачан: 349 раз
    Статус: √ проверено
    Размер: 1.46 GB
    Как cкачать? Как скачать Фотограф через торрент | qTorrent

    28-11-2019 20:33  

    Отключить всю рекламу на сайте

    30-06-2015 20:35 Фотограф Скачать торрент  

    СПС, Норм фильмец!pb.wtf



    01-07-2015 06:07 Фотограф Скачать торрент  

    Постер зачОтный!!! pb.wtf



    04-10-2015 09:45 Фотограф Скачать торрент  

    Классный фильмpb.wtf



    28-02-2016 14:49 Фотограф Скачать торрент  

    Ну что еще могут снять поляки в современной геополитической обстановке))))только прапорщика ДПС, которую взяли в следственную группу ФСБ, да еще и в Польшу с Глоком впустили!!!!Браво! И снова монстры-оккупанты русские!pb.wtf



      Дорогой пользователь! Огромная просьба, поблагодарите релизера, оцените раздачу и оставьте свои комментарий, если Вы скачали Фотограф через торрент бесплатно! Внесите свою лепту в развитие PiratBit!
      Комментировать посты могут только пользователи прошедшие не сложную регистрацию
      Показать сообщения:    

      Фотограф через торрент
      Скачать бесплатно Фотограф
      Фотограф скачать торрент
      Фотограф смотреть онлайн
      Cкачать фильм Фотограф бесплатно
      Фотограф скачать торрент в хорошем качестве
      Фотограф смотреть онлайн бесплатно в хорошем качестве


      Вы не можете начинать темы
      Вы не можете отвечать на сообщения
      Вы не можете редактировать свои сообщения
      Вы не можете удалять свои сообщения
      Вы не можете голосовать в опросах
      Вы не можете прикреплять файлы к сообщениям
      Вы можете скачивать файлы