Ссылка на приватное зеркало нашего сайта всего за 1$. Внимание количество ограничено!!!

2 сезон

iTunes

1 сезон

1

2 сезон

2 сезон

iTunes

1 сезон

RePack

30

Новинка

ВАЖНО

ИГРА 18+

pack

RePack

MK11
pack

Забери бонус

RePack

jed

!!Акция!!

Alien_Rage

RePack

fifa19

RePack

Assassins Creed: Odyssey

RePack

NEED FOR SPEED™ PAYBACK

4 сезон

9 сезон

Бесстыжие 9 сезон

Все сериалы

все сериалы на PB.wtf

RePack

FAR CRY 5
  

Связанные местью / Reversal (Bound to Vengeance) (Хосе Мануэль Кравиотто ) [2015, ужасы, триллер, WEB-DLRip, Любительский (одноголосый) [Pashaup] pb.wtf

Связанные местью через торрент pb.wtf

Размер: 1.37 GB | Добавлен: 5 лет 4 мес. назад | Торрент скачан:212 раз
Скачать  

30-06-2015 20:40 Связанные местью Скачать торрент  


Связанные местью / Reversal (Bound to Vengeance)
«Escape is just the beginning»

ИНФОРМАЦИЯ:
Год выпуска: 2015
Страна: США
Жанр: ужасы, триллер
Продолжительность: 01:19:33
Перевод: Любительский (одноголосый) [Pashaup]
Режиссер: Хосе Мануэль Кравиотто

В Ролях:


Тина Ивлев (Eve), Ричард Тайсон (Phil), Бьянка Малино (Lea), Эми Окуда (Girl #1), Стефани Чарльз (Nina), Фиорелла Гарсиа (Romanian girl), Дастин Куик (Laura), Скотт Вэнс (Tall Man), Рик Сарабиа (Skinny Man), Нихан Гар (Katrina), Виван Дюгре (Maria), Кристоффер Хьорнес (Ronnie)

Описание:
Фильм повествует о молодой девушке, которую похитили и посадили на цепь в темном, сыром подвале для извращенных утех. Однажды ей удается вырваться, и месть становится ее главной целью. Но прежде, чем поставить точку, она должна попытаться спасти остальных узниц.

  • Мировая премьера:23 января 2015

    ТЕХ.ДАННЫЕ:
    Качество: WEB-DLRip
    Формат: AVI
    Видео кодек: XviD
    Аудио кодек: AC3
    Видео: XviD, 720x304 (2.35:1), 1968 kbps, 23,976 fps, 0,375 bpp
    Аудио №1: AC3 / 2.0 / 48 kHz / 192 kbps / Russian
    Аудио №2: AC3 / 2.0 / 48 kHz / 192 kbps / English



    Код:

    General
    Complete name                            : D:\Торенты\Reversal.2015.L1.WEB-DLRip.avi
    Format                                   : AVI
    Format/Info                              : Audio Video Interleave
    File size                                : 1.37 GiB
    Duration                                 : 1h 19mn
    Overall bit rate                         : 2 461 Kbps
    Writing application                      : VirtualDubMod 1.5.10.3 | www.virtualdub-fr.org || (build 2550/release)
    Writing library                          : VirtualDubMod build 2550/release

    Video
    ID                                       : 0
    Format                                   : MPEG-4 Visual
    Format profile                           : Advanced Simple@L5
    Format settings, BVOP                    : 1
    Format settings, QPel                    : No
    Format settings, GMC                     : No warppoints
    Format settings, Matrix                  : Custom
    Codec ID                                 : XVID
    Codec ID/Hint                            : XviD
    Duration                                 : 1h 19mn
    Bit rate                                 : 1 968 Kbps
    Width                                    : 720 pixels
    Height                                   : 304 pixels
    Display aspect ratio                     : 2.35:1
    Frame rate                               : 23.976 fps
    Color space                              : YUV
    Chroma subsampling                       : 4:2:0
    Bit depth                                : 8 bits
    Scan type                                : Progressive
    Compression mode                         : Lossy
    Bits/(Pixel*Frame)                       : 0.375
    Stream size                              : 1.09 GiB (80%)
    Writing library                          : XviD 73

    Audio #1
    ID                                       : 1
    Format                                   : AC-3
    Format/Info                              : Audio Coding 3
    Mode extension                           : CM (complete main)
    Codec ID                                 : 2000
    Duration                                 : 1h 19mn
    Bit rate mode                            : Constant
    Bit rate                                 : 192 Kbps
    Channel(s)                               : 2 channels
    Channel positions                        : Front: L R
    Sampling rate                            : 48.0 KHz
    Bit depth                                : 16 bits
    Compression mode                         : Lossy
    Stream size                              : 109 MiB (8%)
    Alignment                                : Split accross interleaves

    Audio #2
    ID                                       : 2
    Format                                   : AC-3
    Format/Info                              : Audio Coding 3
    Mode extension                           : CM (complete main)
    Codec ID                                 : 2000
    Duration                                 : 1h 19mn
    Bit rate mode                            : Constant
    Bit rate                                 : 192 Kbps
    Channel(s)                               : 2 channels
    Channel positions                        : Front: L R
    Sampling rate                            : 48.0 KHz
    Bit depth                                : 16 bits
    Compression mode                         : Lossy
    Stream size                              : 109 MiB (8%)
    Alignment                                : Split accross interleaves

    Скриншоты:






    © Оформление by Ворон
    pb.wtf



  • Скачать Связанные местью через торрент http://pic.kartinco.top/images/6/ordi9.jpg Скачать фильм Связанные местью через торрент бесплантно в хорошем качестве Описание: Фильм повествует о молодой девушке, которую похитили и посадили на цепь в темном, сыром подвале для извращенных утех. Однажды ей ... 9.5 10 8
    Торрент: Зарегистрирован [2015-06-30 20:40] · скачан: 212 раз
    Статус: T временная
    Размер: 1.37 GB
    Как cкачать? Как скачать Связанные местью через торрент | qTorrent

    28-11-2019 20:33  

    Отключить всю рекламу на сайте

      Дорогой пользователь! Огромная просьба, поблагодарите релизера, оцените раздачу и оставьте свои комментарий, если Вы скачали Связанные местью через торрент бесплатно! Внесите свою лепту в развитие PiratBit!
      Комментировать посты могут только пользователи прошедшие не сложную регистрацию
      Показать сообщения:    

      Связанные местью через торрент
      Скачать бесплатно Связанные местью
      Связанные местью скачать торрент
      Связанные местью смотреть онлайн
      Cкачать фильм Связанные местью бесплатно
      Связанные местью скачать торрент в хорошем качестве
      Связанные местью смотреть онлайн бесплатно в хорошем качестве


      Вы не можете начинать темы
      Вы не можете отвечать на сообщения
      Вы не можете редактировать свои сообщения
      Вы не можете удалять свои сообщения
      Вы не можете голосовать в опросах
      Вы не можете прикреплять файлы к сообщениям
      Вы можете скачивать файлы