1 сезон

1 сезон

iTunes

1

КиноПоиск HD

Кинопоиск HD

iTunes

13

1 сезон

RePack

30

Новинка

ВАЖНО

ИГРА 18+

pack

RePack

MK11
pack

Легкие деньги

RePack

jed

RePack

fifa19

RePack

RDR2

RePack

NEED FOR SPEED™ PAYBACK

4 сезон

9 сезон

Бесстыжие 9 сезон

Все сериалы

все сериалы на PB.wtf

RePack

FAR CRY 5
  
Magnet ссылка

Оптом дешевле 2 / Cheaper by the Dozen 2 (Шон Леви, Адам Шенкман) [2005, комедия, приключения, семейный, BDRip AVC ot msltel] DUB pb.wtf

Оптом дешевле 2 через торрент pb.wtf

Размер: 2 GB | Добавлен: 5 лет 9 мес. назад | Торрент скачан:85 раз
Скачать  

01-07-2015 06:46 Оптом дешевле 2 Скачать торрент  


Название: Оптом дешевле 2
Оригинальное название: Cheaper by the Dozen 2
Год выпуска: 2005
Страна: США, Канада
Жанр: комедия, приключения, семейный
Продолжительность: 01:33:54
Перевод: Дублированный

Режиссёр: Шон Леви, Адам Шенкман

В ролях: Стив Мартин, Александер Конти, Блэйк Вудрафф, Бонни Хант, Джейкоб Смит, Джейми Кинг, Кармен Электра, Кевин Шмидт, Лилиана Мьюми, Морган Йорк, Пайпер Перабо, Том Уэллинг, Тейлор Лотнер

Описание: Семейство Бейкеров планирует провести беззаботные летние каникулы на природе. Однако на отдыхе они встречаются с другой, не менее крупной, семейкой. Детей в кадре, таким образом, становится в два раза больше! Между ними вспыхивает здоровое соперничество и конкуренция, сулящие им немало проблем...



Качество: BDRip AVC Сравнение с исходником
Формат: MKV
Видео кодек: H.264
Аудио кодек: AC3
Видео: MPEG-4 AVC, 2155 Кбит/с, 1024x436, 23,976 кадра/с
Аудио 1: русский, AC3, 384 kbps, 6 ch, 48 kHz [дублированный]
Аудио 2: английский, AC3, 448 kbps, 6 ch, 48 kHz [оригинал]
Субтитры 1: русские
Субтитры 2: английские
Общее
Уникальный идентификатор : 242510961668306184142150112866913699308 (0xB671E98BF67D52DBAA8FF7185B1345EC)
Полное имя : D:VideoОптом дешевле 2.2005.BDRip.AVC.mkv
Формат : Matroska
Версия формата : Version 4 / Version 2
Размер файла : 2,00 Гбайт
Продолжительность : 1 ч. 33 м.
Общий поток : 3048 Кбит/сек
Название фильма : BDRip -- STarankov
Дата кодирования : UTC 2015-06-30 08:05:55
Программа кодирования : mkvmerge v7.9.0 ('Birds') 64bit
Библиотека кодирования : libebml v1.3.1 + libmatroska v1.4.2
DURATION : 01:32:40.512000000
NUMBER_OF_FRAMES : 1810
NUMBER_OF_BYTES : 58031
_STATISTICS_WRITING_APP : mkvmerge v7.9.0 ('Birds') 64bit
_STATISTICS_WRITING_DATE_UTC : 2015-06-30 08:05:55
_STATISTICS_TAGS : BPS DURATION NUMBER_OF_FRAMES NUMBER_OF_BYTES

Видео
Идентификатор : 1
Формат : AVC
Формат/Информация : Advanced Video Codec
Профиль формата : High@L4.1
Параметр CABAC формата : Да
Параметр ReFrames формата : 9 кадров
Идентификатор кодека : V_MPEG4/ISO/AVC
Продолжительность : 1 ч. 33 м.
Битрейт : 2155 Кбит/сек
Ширина : 1024 пикселя
Высота : 436 пикселей
Соотношение сторон : 2,35:1
Режим частоты кадров : Постоянный
Частота кадров : 23,976 кадра/сек
Цветовое пространство : YUV
Субдискретизация насыщенности : 4:2:0
Битовая глубина : 8 бит
Тип развёртки : Прогрессивная
Бит/(Пиксели*Кадры) : 0.201
Размер потока : 1,41 Гбайт (71%)
Библиотека кодирования : x264 core 146 r2538 121396c
Настройки программы : cabac=1 / ref=9 / deblock=1:-1:-1 / analyse=0x3:0x113 / me=umh / subme=10 / psy=1 / psy_rd=1.00:0.15 / mixed_ref=1 / me_range=32 / chroma_me=1 / trellis=2 / 8x8dct=1 / cqm=0 / deadzone=21,11 / fast_pskip=1 / chroma_qp_offset=-3 / threads=6 / lookahead_threads=1 / sliced_threads=0 / nr=0 / decimate=1 / interlaced=0 / bluray_compat=0 / constrained_intra=0 / bframes=8 / b_pyramid=2 / b_adapt=2 / b_bias=0 / direct=1 / weightb=1 / open_gop=0 / weightp=2 / keyint=230 / keyint_min=23 / scenecut=40 / intra_refresh=0 / rc_lookahead=40 / rc=crf / mbtree=0 / crf=19.0 / qcomp=0.60 / qpmin=0 / qpmax=69 / qpstep=4 / vbv_maxrate=40000 / vbv_bufsize=50000 / crf_max=0.0 / nal_hrd=none / filler=0 / ip_ratio=1.40 / pb_ratio=1.30 / aq=1:1.00
Язык : English
Default : Да
Forced : Нет
DURATION : 01:33:54.087000000
NUMBER_OF_FRAMES : 135083
NUMBER_OF_BYTES : 1558885278
_STATISTICS_WRITING_APP : mkvmerge v7.9.0 ('Birds') 64bit
_STATISTICS_WRITING_DATE_UTC : 2015-06-30 08:05:55
_STATISTICS_TAGS : BPS DURATION NUMBER_OF_FRAMES NUMBER_OF_BYTES

Аудио #1
Идентификатор : 2
Формат : AC-3
Формат/Информация : Audio Coding 3
Расширение режима : CM (complete main)
Параметр Endianness формата : Big
Идентификатор кодека : A_AC3
Продолжительность : 1 ч. 33 м.
Вид битрейта : Постоянный
Битрейт : 384 Кбит/сек
Каналы : 6 каналов
Расположение каналов : Front: L C R, Side: L R, LFE
Частота : 48,0 КГц
Битовая глубина : 16 бит
Метод сжатия : С потерями
Размер потока : 258 Мбайт (13%)
Заголовок : DUB
Язык : Russian
Default : Да
Forced : Нет

Аудио #2
Идентификатор : 3
Формат : AC-3
Формат/Информация : Audio Coding 3
Расширение режима : CM (complete main)
Параметр Endianness формата : Big
Идентификатор кодека : A_AC3
Продолжительность : 1 ч. 33 м.
Вид битрейта : Постоянный
Битрейт : 448 Кбит/сек
Каналы : 6 каналов
Расположение каналов : Front: L C R, Side: L R, LFE
Частота : 48,0 КГц
Битовая глубина : 16 бит
Метод сжатия : С потерями
Размер потока : 301 Мбайт (15%)
Заголовок : Original
Язык : English
Default : Нет
Forced : Нет

Текст #1
Идентификатор : 4
Формат : UTF-8
Идентификатор кодека : S_TEXT/UTF8
Идентификатор кодека/Информация : UTF-8 Plain Text
Заголовок : русский
Язык : Russian
Default : Нет
Forced : Нет

Текст #2
Идентификатор : 5
Формат : UTF-8
Идентификатор кодека : S_TEXT/UTF8
Идентификатор кодека/Информация : UTF-8 Plain Text
Заголовок : английский
Default : Нет
Forced : Нет
pb.wtf



Скачать Оптом дешевле 2 через торрент http://i70.fastpic.ru/big/2015/0701/2e/f7aa1571afba7a1b309e8156ce48a42e.jpg Скачать фильм Оптом дешевле 2 через торрент бесплантно в хорошем качестве Описание: Семейство Бейкеров планирует провести беззаботные летние каникулы на природе. Однако на отдыхе они встречаются с другой, не менее ... 10 10 4
Торрент: Зарегистрирован [2015-07-01 06:46] · скачан: 85 раз
Статус: √ проверено
Размер: 2 GB
Как cкачать? Как скачать Оптом дешевле 2 через торрент | UTorrent

% Раздел Тема Автор DL S | L
Фильмы [HD 720p, 1080p] (Хороший звук DUB, MVO) [ 8.06 GB ] Оптом дешевле 2 / Cheaper by the Dozen 2 [2005 BDRip 1080p ot msltel] DUB msltel Скачать
1 | 0
Фильмы [HD 720p, 1080p] (Хороший звук DUB, MVO) [ 3.14 GB ] Оптом дешевле 2 / Cheaper by the Dozen 2 [2005 BDRip 720p ot msltel] DUB msltel Скачать
1 | 0
Фильмы 2001-2005 [ 744 MB ] Оптом дешевле 2 / Cheaper by the Dozen 2 [2005 HDRip] Dub dexter lex Скачать
1 | 0
Фильмы 2001-2005 [ 1.46 GB ] Оптом дешевле 2 / Cheaper by the Dozen 2 [2005 HDRip] Dub dexter lex Скачать
1 | 0

28-11-2019 20:33  

Отключить всю рекламу на сайте

01-07-2015 09:02 Оптом дешевле 2 Скачать торрент  

Как фильм?pb.wtf



    Дорогой пользователь! Огромная просьба, поблагодарите релизера, оцените раздачу и оставьте свои комментарий, если Вы скачали Оптом дешевле 2 через торрент бесплатно! Внесите свою лепту в развитие PiratBit!
    Комментировать посты могут только пользователи прошедшие не сложную регистрацию
    Показать сообщения:    

    Оптом дешевле 2 через торрент
    Скачать бесплатно Оптом дешевле 2
    Оптом дешевле 2 скачать торрент
    Оптом дешевле 2 смотреть онлайн
    Cкачать фильм Оптом дешевле 2 бесплатно
    Оптом дешевле 2 скачать торрент в хорошем качестве
    Оптом дешевле 2 смотреть онлайн бесплатно в хорошем качестве


    Вы не можете начинать темы
    Вы не можете отвечать на сообщения
    Вы не можете редактировать свои сообщения
    Вы не можете удалять свои сообщения
    Вы не можете голосовать в опросах
    Вы не можете прикреплять файлы к сообщениям
    Вы можете скачивать файлы