новый адрес
Ссылка на приватное зеркало всего за 1$. Внимание количество ограничено!!!

iTunes

1+1

iTunes

мы

WEB-DL

1

iTunes

Чернобыль

iTunes

Ральф против интернета

Лицензия

ПШазам

Лицензия

Оно 2

Лицензия

30
pack

Вам бонус

ВАЖНО

!!Акция!!

Alien_RageХит недели

RePack

Resident Evil 21

ИГРА 18+

pack

RePack

jed

!!Акция!!

Alien_Rage

RePack

fifa19

RePack

Assassins Creed: Odyssey

RePack

NEED FOR SPEED™ PAYBACK

3 сезон

9 сезон

Бесстыжие 9 сезон

Все сериалы

все сериалы на PB.wtf

RePack

FAR CRY 5
Ребята, катастрофически не хватает 1900р. для оплаты серверов за Октябрь (всвязи с блокировками трафик упал в 3 раза), 1-2р., выручайте.
  

Свет над Россией (Сергей Юткевич) [1947, СССР, история, DVDRip от AVP Studio] pb.wtf

Свет над Россией через торрент pb.wtf

Размер: 1.09 GB | Добавлен: 4 года 5 мес. назад | Торрент скачан:9 раз
Скачать  

01-07-2015 09:52 Свет над Россией Скачать торрент  

Свет над Россией
Страна: СССР
Производство: Мосфильм

Жанр: история
Год выпуска: 1947
Продолжительность: 01:06:22

Перевод: Не требуется
Cубтитры: нет
Оригинальная аудиодорожка: русский

Режиссер: Сергей Юткевич

В ролях:
Николай Колесников, Михаил Геловани, В.Марков, Б.Оленин, Николай Охлопков, К.Иванова, Николай Крючков, В.Зускин, С.Ценин, В.Ванин, Б.Толмазов, В.Марьев, Сергей Филиппов, Е.Елина, М.Яроцкая, Лидия Сухаревская, Е.Тяпкина, Ростислав Плятт...

Описание:
Истoрикo-рeвoлюционный фильм. Пo мотивам пьесы Н.Ф.Погoдина "Кремлёвскиe курaнты". В фильме показаны воспоминания матроса, прошедшего Октябрьскую революцию, охранявшего В.И.Ленина и воевавшего с фашистами в Великую Отечественную. Ключевым моментом фильма является воплощение в жизнь Ленинского плана об электрификации всей страны (ГОЭЛРО), выполненным страной под руководством партии большевиков и председательством В.И.Ленина и И.В.Сталина в 1920-30-е годы. В 1920 году Советскую Россию посетил известный писатель-фантаст Герберт Уэллс. Он встречался с В.И.Лениным, ознакомился с планами широкой электрификации России, и счёл их неосуществимыми, написав очерк «Россия во мгле». В.И.Ленин пригласил Уэллса приехать через 10 лет и посмотреть как выполняется план, который был рассчитан на 10-15 лет. Герберт Уэллс приехал в 1934 году и был поражён тем, что план был не просто выполнен, но и перевыполнен по ряду показателей. Этот факт также отражён в фильме "Свет над Россией".

Источник: DVD5 R5
Качество видео: DVDRip
Формат видео: AVI
Видео кодек: XviD
Аудио кодек: AC3
Видео: 704x528 (4:3), 25 fps, XviD ~ 2145 kbps avg, 0.231 bit/pixel
Аудио: 48 kHz, Dolby Digital AC3 2.0, 192 kbps

Раздача от:
Общее
Полное имя : Svet.nad.Rossiey.1947.DVDRip_[New-team]_by_AVP_Studio.avi
Формат : AVI
Формат/Информация : Audio Video Interleave
Размер файла : 1,09 Гбайт
Продолжительность : 1 ч. 6 м.
Общий поток : 2347 Кбит/сек
Программа кодирования : VirtualDubModRus 1.5.10.2 (build 2542/release)
Библиотека кодирования : VirtualDubMod build 2542/release

Видео
Идентификатор : 0
Формат : MPEG-4 Visual
Профиль формата : Advanced Simple@L5
Параметр BVOP формата : 1
Параметр QPel формата : Нет
Параметр GMC формата : Без точки перехода
Параметр матрицы формата : Выборочная
Идентификатор кодека : XVID
Идентификатор кодека/Подсказка : XviD
Продолжительность : 1 ч. 6 м.
Битрейт : 2145 Кбит/сек
Ширина : 704 пикселя
Высота : 528 пикселей
Соотношение сторон : 4:3
Частота кадров : 25,000 кадров/сек
Цветовое пространство : YUV
Субдискретизация насыщенности : 4:2:0
Битовая глубина : 8 бит
Тип развёртки : Прогрессивная
Метод сжатия : С потерями
Бит/(Пиксели*Кадры) : 0.231
Размер потока : 1018 Мбайт (91%)
Библиотека кодирования : XviD 73

Аудио
Идентификатор : 1
Формат : AC-3
Формат/Информация : Audio Coding 3
Расширение режима : CM (complete main)
Параметр Endianness формата : Big
Идентификатор кодека : 2000
Продолжительность : 1 ч. 6 м.
Вид битрейта : Постоянный
Битрейт : 192 Кбит/сек
Каналы : 2 канала
Расположение каналов : Front: L R
Частота : 48,0 КГц
Битовая глубина : 16 бит
Метод сжатия : С потерями
Размер потока : 91,1 Мбайт (8%)
Выравнивание : Разделение по промежуткам
Продолжительность промежутка : 40 мс. (1,00 видеокадр)
Время предзагрузки промежутка : 500 мс
pb.wtf



Скачать Свет над Россией через торрент http://s016.radikal.ru/i334/1507/d2/8fd2b85afec1.png Скачать фильм Свет над Россией через торрент бесплантно в хорошем качестве Описание:Истoрикo-рeвoлюционный фильм. Пo мотивам пьесы Н.Ф.Погoдина "Кремлёвскиe курaнты". В фильме показаны воспоминания матроса, ... 10 10 3
Info! Золотая раздача, скачанное не засчитывается.
Торрент: Зарегистрирован [2015-07-01 09:52] · скачан: 9 раз
Статус: √ проверено
Размер: 1.09 GB
Как cкачать? Как скачать Свет над Россией через торрент | qTorrent

% Раздел Тема Автор DL S | L
Кино СССР [ 1.09 GB ] Свет над Россией [1947 СССР история DVDRip-AVC от AVP Studio] AVP Studio Скачать
1 | 0
Кино СССР [ 744 MB ] Свет над Россией [1947 СССР история DVDRip от AVP Studio] AVP Studio Скачать
1 | 0


Последний раз редактировалось: AVP Studio (2015-07-01 18:34), всего редактировалось 1 раз

28-11-2019 20:33  

Отключить всю рекламу на сайте

01-07-2015 10:24 Свет над Россией Скачать торрент  

какое смешное название фильма :)pb.wtf



    Дорогой пользователь! Огромная просьба, поблагодарите релизера, оцените раздачу и оставьте свои комментарий, если Вы скачали Свет над Россией через торрент бесплатно! Внесите свою лепту в развитие PiratBit!
    Комментировать посты могут только пользователи прошедшие не сложную регистрацию
    Показать сообщения:    

    Свет над Россией через торрент
    Скачать бесплатно Свет над Россией
    Свет над Россией скачать торрент
    Свет над Россией смотреть онлайн
    Cкачать фильм Свет над Россией бесплатно
    Свет над Россией скачать торрент в хорошем качестве
    Свет над Россией смотреть онлайн бесплатно в хорошем качестве


    Вы не можете начинать темы
    Вы не можете отвечать на сообщения
    Вы не можете редактировать свои сообщения
    Вы не можете удалять свои сообщения
    Вы не можете голосовать в опросах
    Вы не можете прикреплять файлы к сообщениям
    Вы можете скачивать файлы