Anonymous, доброй ночи, присоединяйтесь к нам в Telegram!, здесь всегда актуальный адрес сайта, оперативная поддержка и многое другое!

>

5.5

iTunes

7.4

iTunes

7.9

iTunes

1

7.7

1 сезон

6.8

iTunes

7.3

1 сезон

13

6.7

1 сезон

8.3

RePack

30

ULTIMATE

pack

9.9

Лицензия

ВАЖНО

ИГРА 18+

pack

7.3

RePack

MK11

7.7

RePack

jed

7.8

RePack

fifa19

8.5

RePack

RDR2

RePack

NEED FOR SPEED™ PAYBACK

4 сезон

9 сезон

Бесстыжие 9 сезон

Все сериалы

все сериалы на PB.wtf

RePack

FAR CRY 5

Anonymous, доброй ночи, мы катастрофически не успеваем собрать деньги на оплату серверов, помогите нам пожалуйста 5,10,15р., для нас важна любая помощь . В качестве благодарности мы отключим Вам всю рекламу на сайте (укажите свой ник в строку Ваше имя)!

×
  
Magnet ссылка

Неудержимые: Трилогия / The Expendables: Trilogy ( Сильвестр Сталлоне, Саймон Уэст, Патрик Хьюз ) [2010, 2012, 2014 США, Франция, Боевик, триллер, приключения, BDRip 720p,DUB] 60fps от R.G. HD-Films pb.wtf

Неудержимые: Трилогия через торрент pb.wtf

Размер: 13.06 GB | Добавлен: 6 лет 3 мес. назад | Торрент скачан:398 раз
Смотреть онлайн Неудержимые: Трилогия | Скачать    Ребята, помогите собрать деньги на оплату серверов!!!

01-07-2015 09:53 Неудержимые: Трилогия Скачать торрент  

Неудержимые: Трилогия / The Expendables: Trilogy


Неудержимые / The Expendables
Год выпуска: 2010
Страна: США
Жанр: боевик, триллер, приключения

Продолжительность: 01:43:22
Перевод: Дубляж
Субтитры: русские (Full),
Режиссер: Сильвестр Сталлоне
В ролях: Сильвестр Сталлоне (Barney Ross), Джейсон Стэйтем (Lee Christmas), Джет Ли (Yin Yang), Жизель Итье (Sandra), Рэнди Кутюр (Toll Road), Дольф Лундгрен (Gunner Jensen), Терри Крюс (Hale Caesar), Микки Рурк (Tool), Эрик Робертс (James Munroe), Дэвид Зайас (General Garza), Стив Остин (Paine), Харизма Карпентер (Lacy)
Описание:
Отряд профессиональных наёмников и отчаянных парней во главе с Барни Россом получает непростое задание - любой ценой найти и уничтожить кровавого тирана-диктатора, нагнетающего страх на мирное население и сеющего хаос в южноамериканской стране.
Отправляясь на выполнение нелёгкой миссии, закалённые огнём и водой, прошедшие не одну войну, люди Росса попадают в самое пекло. Отныне им придётся выживать: сплотиться и достигнуть цели, либо отчаяться и погибнуть. И всё же эти храбрые, поистине невозмутимые ребята готовы реализовать даже не реализуемое. Но не всё так просто, как кажется на первый взгляд...
Рейтинг:

Качество: BDRip 720p / 60fps
Формат: MKV
Видео кодек: AVC
Аудио кодек:AC3
Видео: AVC, 1280x536 (2.40:1), 4943 kbps, 60 fps, 0,120 bpp
Аудио: русский / AC3 / 5.1 / 48 kHz / 384 kbps / 16 bit ||
Релиз:
x264 [info]: frame I:2802 Avg QP:15.34 size: 94614
x264 [info]: frame P:100000 Avg QP:18.29 size: 22536
x264 [info]: frame B:269321 Avg QP:22.08 size: 5180
x264 [info]: consecutive B-frames: 3.4% 5.7% 16.0% 20.7% 54.1%


General
Unique ID : 208063436528858446948741377280901608180 (0x9C878F6E23051FD4991A602E53BF72F4)
Complete name : E:\The Expendables\The.Expendables.(2010).BDRip.720p.(60 Fps).mkv
Format : Matroska
Format version : Version 4 / Version 2
File size : 3.93 GiB
Duration : 1h 43mn
Overall bit rate : 5 436 Kbps
Movie name : Неудержимые / The Expendables [Театральная версия]BDRip 720p от R.G. HD-Films | 60 fps
Encoded date : UTC 2015-07-01 07:05:33
Writing application : mkvmerge v6.2.0 ('Promised Land') built on Apr 28 2013 12:22:01
Writing library : libebml v1.3.0 + libmatroska v1.4.0

Video
ID : 1
Format : AVC
Format/Info : Advanced Video Codec
Format profile : High@L4.1
Format settings, CABAC : Yes
Format settings, ReFrames : 4 frames
Codec ID : V_MPEG4/ISO/AVC
Duration : 1h 43mn
Bit rate : 4 944 Kbps
Width : 1 280 pixels
Height : 536 pixels
Display aspect ratio : 2.40:1
Frame rate : 60.000 fps
Color space : YUV
Chroma subsampling : 4:2:0
Bit depth : 8 bits
Scan type : Progressive
Bits/(Pixel*Frame) : 0.120
Stream size : 3.57 GiB (91%)
Title : slaventi-69 ( R.G. HD-Films | 60 fps )
Writing library : x264 core 130 r2273 b3065e6
Encoding settings : cabac=1 / ref=4 / deblock=1:0:0 / analyse=0x3:0x113 / me=umh / subme=9 / psy=1 / psy_rd=1.00:0.00 / mixed_ref=1 / me_range=28 / chroma_me=1 / trellis=2 / 8x8dct=1 / cqm=0 / deadzone=21,11 / fast_pskip=1 / chroma_qp_offset=-2 / threads=10 / lookahead_threads=1 / sliced_threads=0 / nr=0 / decimate=1 / interlaced=0 / bluray_compat=0 / constrained_intra=0 / bframes=4 / b_pyramid=2 / b_adapt=2 / b_bias=0 / direct=1 / weightb=1 / open_gop=0 / weightp=2 / keyint=250 / keyint_min=25 / scenecut=40 / intra_refresh=0 / rc_lookahead=40 / rc=crf / mbtree=1 / crf=16.5 / qcomp=0.60 / qpmin=0 / qpmax=69 / qpstep=4 / ip_ratio=1.40 / aq=1:1.00
Language : English
Default : Yes
Forced : No

Audio
ID : 2
Format : AC-3
Format/Info : Audio Coding 3
Mode extension : CM (complete main)
Codec ID : A_AC3
Duration : 1h 43mn
Bit rate mode : Constant
Bit rate : 384 Kbps
Channel(s) : 6 channels
Channel positions : Front: L C R, Side: L R, LFE
Sampling rate : 48.0 KHz
Bit depth : 16 bits
Compression mode : Lossy
Stream size : 284 MiB (7%)
Title : Dub
Language : Russian
Default : Yes
Forced : No

Text
ID : 3
Format : UTF-8
Codec ID : S_TEXT/UTF8
Codec ID/Info : UTF-8 Plain Text
Title : Full
Language : Russian
Default : No
Forced : No
скриншот   скриншот   скриншот   скриншот   скриншот  Просьба к переливающим на другие сайты, в оформлении указывайте пожалуйста авторство рипа slaventi-69
Неудержимые 2 / The Expendables 2
Год выпуска: 2012
Страна: США
Жанр: боевик, триллер, приключения

Продолжительность: 01:42:16
Перевод: Дубляж
Субтитры: английские (SDH),
Режиссер: Саймон Уэст
В ролях: Сильвестр Сталлоне (Barney Ross), Джейсон Стэйтем (Lee Christmas), Дольф Лундгрен (Gunner Jensen), Жан-Клод Ван Дамм (Vilain), Терри Крюс (Hale Caesar), Рэнди Кутюр (Toll Road), Лиам Хемсворт (Billy The Kid), Нань Юй (Maggie), Чак Норрис (Booker), Арнольд Шварценеггер (Trench), Брюс Уиллис (Church), Джет Ли (Yin Yang)
Описание:
Можно ли попробовать изменить расстановку сил в мире? Да, если вы круты, как Ван Дамм, у вас есть пять тонн плутония и первоклассные наемники. Стоит ли шутить с Уиллисом, когда вы ему серьезно задолжали? Нет, даже если вы опасны, как Сталлоне и у вас за спиной Неудержимые.
Кого позвать на такое плевое дельце, как спасение мира? Пара проверенных ребят, Стэйтем и Норрис, явно не помешают. Пригодятся и малыш Хемсворт, и опасная красотка. Но команда будет неполной без Шварценеггера. Он реально вернулся! Все в сборе. Понеслась...
Рейтинг:

Качество: BDRip 720p / 60fps
Формат: MKV
Видео кодек: AVC
Аудио кодек:AC3
Видео: AVC, 1280x536 (2.40:1), 4753 kbps, 59,940 fps, 0,116 bpp
Аудио: русский / AC3 / 5.1 / 48 kHz / 384 kbps / 16 bit ||
Навигация по главам: есть
Релиз:
x264 [info]: frame I:2904 Avg QP:15.48 size:109541
x264 [info]: frame P:91953 Avg QP:18.20 size: 23687
x264 [info]: frame B:272984 Avg QP:21.88 size: 4496
x264 [info]: consecutive B-frames: 2.9% 4.8% 10.6% 12.6% 69.1%


General
Unique ID : 187635393813708848720413025539736101451 (0x8D294329D89C43D9943E16FACA62624B)
Complete name : E:\The Expendables\The.Expendables.2.(2012).BDRip.720p.(60 Fps).mkv
Format : Matroska
Format version : Version 4 / Version 2
File size : 3.75 GiB
Duration : 1h 42mn
Overall bit rate : 5 242 Kbps
Movie name : Неудержимые 2 / The Expendables 2 (2012) BDRip 720p от R.G. HD-Films | 60 fps
Encoded date : UTC 2015-07-01 07:19:41
Writing application : mkvmerge v6.2.0 ('Promised Land') built on Apr 28 2013 12:22:01
Writing library : libebml v1.3.0 + libmatroska v1.4.0

Video
ID : 1
Format : AVC
Format/Info : Advanced Video Codec
Format profile : High@L4.1
Format settings, CABAC : Yes
Format settings, ReFrames : 4 frames
Codec ID : V_MPEG4/ISO/AVC
Duration : 1h 42mn
Bit rate : 4 754 Kbps
Width : 1 280 pixels
Height : 536 pixels
Display aspect ratio : 2.40:1
Frame rate : 59.940 fps
Color space : YUV
Chroma subsampling : 4:2:0
Bit depth : 8 bits
Scan type : Progressive
Bits/(Pixel*Frame) : 0.116
Stream size : 3.40 GiB (91%)
Title : slaventi-69 ( R.G. HD-Films | 60 fps )
Writing library : x264 core 130 r2273 b3065e6
Encoding settings : cabac=1 / ref=4 / deblock=1:-2:-2 / analyse=0x3:0x113 / me=umh / subme=9 / psy=1 / psy_rd=1.00:0.00 / mixed_ref=1 / me_range=28 / chroma_me=1 / trellis=2 / 8x8dct=1 / cqm=0 / deadzone=21,11 / fast_pskip=1 / chroma_qp_offset=-2 / threads=10 / lookahead_threads=1 / sliced_threads=0 / nr=0 / decimate=1 / interlaced=0 / bluray_compat=0 / constrained_intra=0 / bframes=4 / b_pyramid=2 / b_adapt=2 / b_bias=0 / direct=1 / weightb=1 / open_gop=0 / weightp=2 / keyint=250 / keyint_min=25 / scenecut=40 / intra_refresh=0 / rc_lookahead=40 / rc=crf / mbtree=1 / crf=16.0 / qcomp=0.60 / qpmin=0 / qpmax=69 / qpstep=4 / ip_ratio=1.40 / aq=1:1.00
Language : English
Default : Yes
Forced : No

Audio
ID : 2
Format : AC-3
Format/Info : Audio Coding 3
Mode extension : CM (complete main)
Codec ID : A_AC3
Duration : 1h 42mn
Bit rate mode : Constant
Bit rate : 384 Kbps
Channel(s) : 6 channels
Channel positions : Front: L C R, Side: L R, LFE
Sampling rate : 48.0 KHz
Bit depth : 16 bits
Compression mode : Lossy
Stream size : 281 MiB (7%)
Title : Dub
Language : Russian
Default : Yes
Forced : No

Text
ID : 3
Format : UTF-8
Codec ID : S_TEXT/UTF8
Codec ID/Info : UTF-8 Plain Text
Title : SDH
Language : English
Default : No
Forced : No

Menu
00:00:00.000 : en:
00:08:01.105 : en:
00:15:27.593 : en:
00:24:32.344 : en:
00:33:21.541 : en:
00:42:15.199 : en:
00:50:27.690 : en:
00:59:01.454 : en:
01:06:52.133 : en:
01:14:42.978 : en:
01:19:55.499 : en:
01:28:04.612 : en:
01:32:34.674 : en:
скриншот   скриншот   скриншот   скриншот   скриншот   скриншот  Просьба к переливающим на другие сайты, в оформлении указывайте пожалуйста авторство рипа slaventi-69

Неудержимые 3 / The Expendables 3
Год выпуска: 2014
Страна: США, Франция
Жанр: боевик, триллер, приключения

Продолжительность: 02:11:23
Перевод: Дубляж
Субтитры: русские (Forced),
Режиссер: Патрик Хьюз
В ролях: Сильвестр Сталлоне (Barney Ross), Джейсон Стэйтем (Lee Christmas), Мэл Гибсон (Stonebanks), Харрисон Форд (Drummer), Антонио Бандерас (Galgo), Уэсли Снайпс (Doc), Дольф Лундгрен (Gunner Jensen), Терри Крюс (Caesar), Арнольд Шварценеггер (Trench), Рэнди Кутюр (Toll Road), Келси Грэммер (Bonaparte), Джет Ли (Yin Yang)
Описание:
Барни, Кристмас и остальные члены команды сходятся лицом к лицу с Конрадом Стоунбэнксом, многие годы назад основавшем вместе с Барни команду «Неудержимых». Впоследствии Стоунбэнкс становится безжалостным торговцем оружием и тем самым превращается в человека, которого Барни было поручено убить. Или по крайней мере он сам так считал. Теперь Стоунбэнкс, один раз уже сумевший обмануть смерть, поставил себе цель покончить с «Неудержимыми» - но у Барни на этот счет свои планы. Барни решает, что в его борьбе «свежий» подход можно противопоставить старым методам, и пополняет ряды людьми, которые моложе, быстрее и технически более подкованные. Так у членов команды «Неудержимых» начинается новая эра. Последняя миссия превращается в столкновение между представителями классической старой школы и экспертами в высоких технологиях.
Рейтинг:

Качество: BDRip 720p / 60fps
Формат: MKV
Видео кодек: AVC
Аудио кодек:AC3
Видео: AVC, 1280x536 (2.40:1), 5375 kbps, 60 fps, 0,131 bpp
Аудио: русский / AC3 / 5.1 / 48 kHz / 384 kbps / 16 bit ||
Навигация по главам: есть
Релиз:
x264 [info]: frame I:3674 Avg QP:15.30 size:118713
x264 [info]: frame P:120688 Avg QP:18.28 size: 25722
x264 [info]: frame B:348654 Avg QP:22.52 size: 5358
x264 [info]: consecutive B-frames: 3.0% 4.3% 12.8% 18.3% 61.7%

General
Unique ID : 190708377453726736857352839004704977990 (0x8F7918F4578FB1C6917B0AAD5A1BB446)
Complete name : E:\The Expendables\The.Expendables.3.UNRATED.(2014).BDRip.720p.(60 Fps).mkv
Format : Matroska
Format version : Version 4 / Version 2
File size : 5.39 GiB
Duration : 2h 11mn
Overall bit rate : 5 876 Kbps
Movie name : Неудержимые 3 / The Expendables 3 UNRATED (2014) BDRip 720p от R.G. HD-Films | 60 fps
Encoded date : UTC 2015-07-01 07:41:52
Writing application : mkvmerge v6.2.0 ('Promised Land') built on Apr 28 2013 12:22:01
Writing library : libebml v1.3.0 + libmatroska v1.4.0

Video
ID : 1
Format : AVC
Format/Info : Advanced Video Codec
Format profile : High@L4.1
Format settings, CABAC : Yes
Format settings, ReFrames : 4 frames
Codec ID : V_MPEG4/ISO/AVC
Duration : 2h 11mn
Bit rate : 5 375 Kbps
Width : 1 280 pixels
Height : 536 pixels
Display aspect ratio : 2.40:1
Frame rate : 60.000 fps
Color space : YUV
Chroma subsampling : 4:2:0
Bit depth : 8 bits
Scan type : Progressive
Bits/(Pixel*Frame) : 0.131
Stream size : 4.93 GiB (91%)
Title : slaventi-69 ( R.G. HD-Films | 60 fps )
Writing library : x264 core 130 r2273 b3065e6
Encoding settings : cabac=1 / ref=4 / deblock=1:0:0 / analyse=0x3:0x113 / me=umh / subme=9 / psy=1 / psy_rd=1.00:0.00 / mixed_ref=1 / me_range=28 / chroma_me=1 / trellis=2 / 8x8dct=1 / cqm=0 / deadzone=21,11 / fast_pskip=1 / chroma_qp_offset=-2 / threads=10 / lookahead_threads=1 / sliced_threads=0 / nr=0 / decimate=1 / interlaced=0 / bluray_compat=0 / constrained_intra=0 / bframes=4 / b_pyramid=2 / b_adapt=2 / b_bias=0 / direct=1 / weightb=1 / open_gop=0 / weightp=2 / keyint=250 / keyint_min=25 / scenecut=40 / intra_refresh=0 / rc_lookahead=40 / rc=crf / mbtree=1 / crf=16.0 / qcomp=0.60 / qpmin=0 / qpmax=69 / qpstep=4 / ip_ratio=1.40 / aq=1:1.00
Language : English
Default : Yes
Forced : No

Audio
ID : 2
Format : AC-3
Format/Info : Audio Coding 3
Mode extension : CM (complete main)
Codec ID : A_AC3
Duration : 2h 11mn
Bit rate mode : Constant
Bit rate : 384 Kbps
Channel(s) : 6 channels
Channel positions : Front: L C R, Side: L R, LFE
Sampling rate : 48.0 KHz
Bit depth : 16 bits
Compression mode : Lossy
Stream size : 361 MiB (7%)
Title : Dub [BD RUS] [+ вставки Д.Есарева]
Language : Russian
Default : Yes
Forced : No

Text
ID : 3
Format : UTF-8
Codec ID : S_TEXT/UTF8
Codec ID/Info : UTF-8 Plain Text
Title : Forced
Language : Russian
Default : Yes
Forced : No

Menu
00:00:00.000 : :Chapter 01
00:07:25.528 : :Chapter 02
00:13:00.028 : :Chapter 03
00:22:24.759 : :Chapter 04
00:30:12.101 : :Chapter 05
00:36:20.301 : :Chapter 06
00:42:31.421 : :Chapter 07
00:48:45.546 : :Chapter 08
00:55:37.707 : :Chapter 09
01:01:30.268 : :Chapter 10
01:12:07.573 : :Chapter 11
01:21:14.786 : :Chapter 12
01:30:10.654 : :Chapter 13
01:36:43.337 : :Chapter 14
01:47:47.627 : :Chapter 15
01:56:15.760 : :Chapter 16
скриншот   скриншот   скриншот   скриншот   скриншот   скриншот  Просьба к переливающим на другие сайты, в оформлении указывайте пожалуйста авторство рипа slaventi-69
Просьба к переливающим на другие сайты, в оформлении указывайте пожалуйста авторство группы R.G. HD-Filmspb.wtf



Скачать Неудержимые: Трилогия через торрент https://pic.kartinco.top/images/11/qj673.jpg Скачать, смотреть онлайн Неудержимые: Трилогия бесплантно в хорошем качестве Описание: Отряд профессиональных наёмников и отчаянных парней во главе с Барни Россом получает непростое задание - любой ценой найти и ... 9.7 10 29
Info! Золотая раздача, скачанное не засчитывается.
Торрент: Зарегистрирован [2015-07-01 09:53] · скачан: 398 раз
Статус: √ проверено
Размер: 13.06 GB
Как cкачать? Как скачать Неудержимые: Трилогия через торрент | UTorrent

28-11-2019 20:33  

Отключить всю рекламу на сайте

01-07-2015 16:14 Неудержимые: Трилогия Скачать торрент  

это праздник просто ! спасибо огромное )pb.wtf



16-07-2015 16:49 Неудержимые: Трилогия Скачать торрент  

Вообще правильный перевод: Пушечное мясо, расходный материалю Это из Рэмбо.Кажется 2-я часть. Поправьте если не так.pb.wtf



31-07-2015 16:55 Неудержимые: Трилогия Скачать торрент  

и где скорость!!!!!!!!!!!!!!!!!!!!!!!!!!!!!!!!!!!pb.wtf



09-11-2016 14:33 Неудержимые: Трилогия Скачать торрент  

Раздайте пожалуйста!!! Из третьей части пол процента осталось, уже два дня раздача стоит - скачал 5.38 Гб отдал 5.43 Гб, поржал

Спасибо всем, докачал наконец-то...pb.wtf



01-03-2017 14:13 Неудержимые: Трилогия Скачать торрент  

встаньте кто то в раздачу пожалуйстаpb.wtf



    Дорогой пользователь! Огромная просьба, поблагодарите релизера, оцените раздачу и оставьте свои комментарий, если Вы скачали Неудержимые: Трилогия через торрент бесплатно!
    Комментировать посты могут только пользователи прошедшие не сложную регистрацию
    Показать сообщения:    

    Неудержимые: Трилогия через торрент
    Скачать бесплатно Неудержимые: Трилогия
    Неудержимые: Трилогия скачать торрент
    Неудержимые: Трилогия смотреть онлайн
    Cкачать фильм Неудержимые: Трилогия бесплатно
    Неудержимые: Трилогия скачать торрент в хорошем качестве
    Неудержимые: Трилогия смотреть онлайн бесплатно в хорошем качестве


    Вы не можете начинать темы
    Вы не можете отвечать на сообщения
    Вы не можете редактировать свои сообщения
    Вы не можете удалять свои сообщения
    Вы не можете голосовать в опросах
    Вы не можете прикреплять файлы к сообщениям
    Вы можете скачивать файлы