новый адрес
Ссылка на приватное зеркало всего за 1$. Внимание количество ограничено!!!

iTunes

1+1

iTunes

мы

WEB-DL

1

iTunes

Чернобыль

iTunes

Ральф против интернета

Лицензия

ПШазам

Лицензия

Оно 2

Лицензия

30
pack

Вам бонус

ВАЖНО

!!Акция!!

Alien_RageХит недели

RePack

Resident Evil 21

ИГРА 18+

pack

RePack

jed

!!Акция!!

Alien_Rage

RePack

fifa19

RePack

Assassins Creed: Odyssey

RePack

NEED FOR SPEED™ PAYBACK

3 сезон

9 сезон

Бесстыжие 9 сезон

Все сериалы

все сериалы на PB.wtf

RePack

FAR CRY 5
Ребята, катастрофически не хватает 1900р. для оплаты серверов за Октябрь (всвязи с блокировками трафик упал в 3 раза), 1-2р., выручайте.
  

Свет над Россией (Сергей Юткевич) [1947, СССР, история, DVDRip от AVP Studio] pb.wtf

Свет над Россией через торрент pb.wtf

Размер: 744 MB | Добавлен: 4 года 5 мес. назад | Торрент скачан:8 раз
Скачать  

01-07-2015 09:55 Свет над Россией Скачать торрент  

Свет над Россией
Страна: СССР
Производство: Мосфильм

Жанр: история
Год выпуска: 1947
Продолжительность: 01:06:22

Перевод: Не требуется
Cубтитры: нет
Оригинальная аудиодорожка: русский

Режиссер: Сергей Юткевич

В ролях:
Николай Колесников, Михаил Геловани, В.Марков, Б.Оленин, Николай Охлопков, К.Иванова, Николай Крючков, В.Зускин, С.Ценин, В.Ванин, Б.Толмазов, В.Марьев, Сергей Филиппов, Е.Елина, М.Яроцкая, Лидия Сухаревская, Е.Тяпкина, Ростислав Плятт...

Описание:
Истoрикo-рeвoлюционный фильм. Пo мотивам пьесы Н.Ф.Погoдина "Кремлёвскиe курaнты". В фильме показаны воспоминания матроса, прошедшего Октябрьскую революцию, охранявшего В.И.Ленина и воевавшего с фашистами в Великую Отечественную. Ключевым моментом фильма является воплощение в жизнь Ленинского плана об электрификации всей страны (ГОЭЛРО), выполненным страной под руководством партии большевиков и председательством В.И.Ленина и И.В.Сталина в 1920-30-е годы. В 1920 году Советскую Россию посетил известный писатель-фантаст Герберт Уэллс. Он встречался с В.И.Лениным, ознакомился с планами широкой электрификации России, и счёл их неосуществимыми, написав очерк «Россия во мгле». В.И.Ленин пригласил Уэллса приехать через 10 лет и посмотреть как выполняется план, который был рассчитан на 10-15 лет. Герберт Уэллс приехал в 1934 году и был поражён тем, что план был не просто выполнен, но и перевыполнен по ряду показателей. Этот факт также отражён в фильме "Свет над Россией".

Источник: DVD5 R5
Качество видео: DVDRip
Формат видео: AVI
Видео кодек: XviD
Аудио кодек: MP3
Видео: 704x528 (4:3), 25 fps, XviD ~ 1430 kbps avg, 0.154 bit/pixel
Аудио: 48 kHz, MP3 2.0, 128 kbps

Раздача от:
Общее
Полное имя : Svet.nad.Rossiey.1947.DVDRip-745_[New-team]_by_AVP_Studio.avi
Формат : AVI
Формат/Информация : Audio Video Interleave
Размер файла : 744 Мбайт
Продолжительность : 1 ч. 6 м.
Общий поток : 1568 Кбит/сек
Программа кодирования : VirtualDubModRus 1.5.10.2 (build 2542/release)
Библиотека кодирования : VirtualDubMod build 2542/release

Видео
Идентификатор : 0
Формат : MPEG-4 Visual
Профиль формата : Advanced Simple@L5
Параметр BVOP формата : 1
Параметр QPel формата : Нет
Параметр GMC формата : Без точки перехода
Параметр матрицы формата : Выборочная
Идентификатор кодека : XVID
Идентификатор кодека/Подсказка : XviD
Продолжительность : 1 ч. 6 м.
Битрейт : 1430 Кбит/сек
Ширина : 704 пикселя
Высота : 528 пикселей
Соотношение сторон : 4:3
Частота кадров : 25,000 кадров/сек
Цветовое пространство : YUV
Субдискретизация насыщенности : 4:2:0
Битовая глубина : 8 бит
Тип развёртки : Прогрессивная
Метод сжатия : С потерями
Бит/(Пиксели*Кадры) : 0.154
Размер потока : 679 Мбайт (91%)
Библиотека кодирования : XviD 73

Аудио
Идентификатор : 1
Формат : MPEG Audio
Версия формата : Version 1
Профиль формата : Layer 3
Идентификатор кодека : 55
Идентификатор кодека/Подсказка : MP3
Продолжительность : 1 ч. 6 м.
Вид битрейта : Постоянный
Битрейт : 128 Кбит/сек
Каналы : 2 канала
Частота : 48,0 КГц
Метод сжатия : С потерями
Размер потока : 60,8 Мбайт (8%)
Выравнивание : Соединение по промежуткам
Продолжительность промежутка : 40 мс. (1,00 видеокадр)
Время предзагрузки промежутка : 504 мс.
Библиотека кодирования : LAME3.99r
Настройки программы : -m s -V 4 -q 2 -lowpass 17 -b 128
pb.wtf



Скачать Свет над Россией через торрент http://s016.radikal.ru/i334/1507/d2/8fd2b85afec1.png Скачать фильм Свет над Россией через торрент бесплантно в хорошем качестве Описание:Истoрикo-рeвoлюционный фильм. Пo мотивам пьесы Н.Ф.Погoдина "Кремлёвскиe курaнты". В фильме показаны воспоминания матроса, ... 10 10 2
Info! Золотая раздача, скачанное не засчитывается.
Торрент: Зарегистрирован [2015-07-01 09:55] · скачан: 8 раз
Статус: √ проверено
Размер: 744 MB
Как cкачать? Как скачать Свет над Россией через торрент | qTorrent

% Раздел Тема Автор DL S | L
Кино СССР [ 1.09 GB ] Свет над Россией [1947 СССР история DVDRip от AVP Studio] AVP Studio Скачать
1 | 0
Кино СССР [ 1.09 GB ] Свет над Россией [1947 СССР история DVDRip-AVC от AVP Studio] AVP Studio Скачать
1 | 0

28-11-2019 20:33  

Отключить всю рекламу на сайте

    Дорогой пользователь! Огромная просьба, поблагодарите релизера, оцените раздачу и оставьте свои комментарий, если Вы скачали Свет над Россией через торрент бесплатно! Внесите свою лепту в развитие PiratBit!
    Комментировать посты могут только пользователи прошедшие не сложную регистрацию
    Показать сообщения:    

    Свет над Россией через торрент
    Скачать бесплатно Свет над Россией
    Свет над Россией скачать торрент
    Свет над Россией смотреть онлайн
    Cкачать фильм Свет над Россией бесплатно
    Свет над Россией скачать торрент в хорошем качестве
    Свет над Россией смотреть онлайн бесплатно в хорошем качестве


    Вы не можете начинать темы
    Вы не можете отвечать на сообщения
    Вы не можете редактировать свои сообщения
    Вы не можете удалять свои сообщения
    Вы не можете голосовать в опросах
    Вы не можете прикреплять файлы к сообщениям
    Вы можете скачивать файлы