новый адрес пиратбит piratbit
Мега распродажа FORZA HORIZON 4 ULTIMATE+ВСЕ DLC+ОНЛАЙН всего за 499р. 349 руб. (супер цена). Внимание количество ограничено!!!

iTunes

1+1

iTunes

мы

iTunes

1

iTunes

Чернобыль

iTunes

Ральф против интернета

Лицензия

ПШазам

Лицензия

Игра престолов

Лицензия

30
pack

ВАЖНО

!!Акция!!

Alien_RageХит недели

RePack

Resident Evil 21

ИГРА 18+

pack

RePack

Metro:Exodus

!!Акция!!

Alien_Rage

RePack

fifa19

RePack

Assassins Creed: Odyssey

RePack

NEED FOR SPEED™ PAYBACK

3 сезон

9 сезон

Бесстыжие 9 сезон

Все сериалы

все сериалы на PB.wtf

RePack

FAR CRY 5
Ребята, катастрофически не хватает 1900р. для оплаты серверов за Октябрь (всвязи с блокировками трафик упал в 3 раза), 1-2р., выручайте.
  

Свет над Россией (Сергей Юткевич) [1947, СССР, история, DVDRip-AVC от AVP Studio] pb.wtf

Свет над Россией через торрент pb.wtf

Размер: 1.09 GB | Добавлен: 4 года 4 мес. назад | Торрент скачан:19 раз
Скачать  

01-07-2015 09:58 Свет над Россией Скачать торрент  

Свет над Россией
Страна: СССР
Производство: Мосфильм

Жанр: история
Год выпуска: 1947
Продолжительность: 01:06:22

Перевод: Не требуется
Cубтитры: нет
Оригинальная аудиодорожка: русский

Режиссер: Сергей Юткевич

В ролях:
Николай Колесников, Михаил Геловани, В.Марков, Б.Оленин, Николай Охлопков, К.Иванова, Николай Крючков, В.Зускин, С.Ценин, В.Ванин, Б.Толмазов, В.Марьев, Сергей Филиппов, Е.Елина, М.Яроцкая, Лидия Сухаревская, Е.Тяпкина, Ростислав Плятт...

Описание:
Истoрикo-рeвoлюционный фильм. Пo мотивам пьесы Н.Ф.Погoдина "Кремлёвскиe курaнты". В фильме показаны воспоминания матроса, прошедшего Октябрьскую революцию, охранявшего В.И.Ленина и воевавшего с фашистами в Великую Отечественную. Ключевым моментом фильма является воплощение в жизнь Ленинского плана об электрификации всей страны (ГОЭЛРО), выполненным страной под руководством партии большевиков и председательством В.И.Ленина и И.В.Сталина в 1920-30-е годы. В 1920 году Советскую Россию посетил известный писатель-фантаст Герберт Уэллс. Он встречался с В.И.Лениным, ознакомился с планами широкой электрификации России, и счёл их неосуществимыми, написав очерк «Россия во мгле». В.И.Ленин пригласил Уэллса приехать через 10 лет и посмотреть как выполняется план, который был рассчитан на 10-15 лет. Герберт Уэллс приехал в 1934 году и был поражён тем, что план был не просто выполнен, но и перевыполнен по ряду показателей. Этот факт также отражён в фильме "Свет над Россией".

Источник: DVD5 R5
Качество видео: DVDRip-AVC
Формат видео: MKV
Видео кодек: H.264
Аудио кодек: AC3
Видео: 712->746x560 (4:3), 25 fps, H264 ~ 2156 kbps avg, 0.216 bit/pixel
Аудио: 48 kHz, Dolby Digital AC3 2.0, 192 kbps

Раздача от:
Общее
Полное имя : Svet.nad.Rossiey.1947.DVDRip-AVC_[New-team]_by_AVP_Studio.mkv
Формат : Matroska
Версия формата : Version 2
Размер файла : 1,09 Гбайт
Продолжительность : 1 ч. 6 м.
Общий поток : 2350 Кбит/сек
Дата кодирования : UTC 2015-06-30 04:55:55
Программа кодирования : mkvmerge v6.1.0 ('Old Devil') built on Mar 4 2013 09:10:42
Библиотека кодирования : libebml v1.3.0 + libmatroska v1.4.0

Видео
Идентификатор : 1
Формат : AVC
Формат/Информация : Advanced Video Codec
Профиль формата : High@L4.1
Параметр CABAC формата : Да
Параметр ReFrames формата : 8 кадров
Идентификатор кодека : V_MPEG4/ISO/AVC
Продолжительность : 1 ч. 6 м.
Битрейт : 2156 Кбит/сек
Ширина : 712 пикселей
Высота : 560 пикселей
Соотношение сторон : 4:3
Режим частоты кадров : Постоянный
Частота кадров : 25,000 кадров/сек
Цветовое пространство : YUV
Субдискретизация насыщенности : 4:2:0
Битовая глубина : 8 бит
Тип развёртки : Прогрессивная
Бит/(Пиксели*Кадры) : 0.216
Размер потока : 1002 Мбайт (90%)
Библиотека кодирования : x264 core 138 r2356 a1d3d17
Настройки программы : cabac=1 / ref=8 / deblock=1:-2:-1 / analyse=0x3:0x113 / me=umh / subme=10 / psy=1 / psy_rd=1.00:0.05 / mixed_ref=1 / me_range=32 / chroma_me=1 / trellis=2 / 8x8dct=1 / cqm=0 / deadzone=21,11 / fast_pskip=0 / chroma_qp_offset=-3 / threads=6 / lookahead_threads=1 / sliced_threads=0 / nr=0 / decimate=0 / interlaced=0 / bluray_compat=0 / constrained_intra=0 / bframes=8 / b_pyramid=2 / b_adapt=2 / b_bias=0 / direct=3 / weightb=1 / open_gop=0 / weightp=2 / keyint=250 / keyint_min=25 / scenecut=40 / intra_refresh=0 / rc=2pass / mbtree=0 / bitrate=2156 / ratetol=1.0 / qcomp=0.60 / qpmin=0 / qpmax=69 / qpstep=4 / cplxblur=20.0 / qblur=0.5 / ip_ratio=1.40 / pb_ratio=1.30 / aq=1:1.00
Default : Да
Forced : Нет

Аудио
Идентификатор : 2
Формат : AC-3
Формат/Информация : Audio Coding 3
Расширение режима : CM (complete main)
Параметр Endianness формата : Big
Идентификатор кодека : A_AC3
Продолжительность : 1 ч. 6 м.
Вид битрейта : Постоянный
Битрейт : 192 Кбит/сек
Каналы : 2 канала
Расположение каналов : Front: L R
Частота : 48,0 КГц
Битовая глубина : 16 бит
Метод сжатия : С потерями
Размер потока : 91,1 Мбайт (8%)
Default : Да
Forced : Нет
pb.wtf



Скачать Свет над Россией через торрент http://s016.radikal.ru/i334/1507/d2/8fd2b85afec1.png Скачать фильм Свет над Россией через торрент бесплантно в хорошем качестве Описание:Истoрикo-рeвoлюционный фильм. Пo мотивам пьесы Н.Ф.Погoдина "Кремлёвскиe курaнты". В фильме показаны воспоминания матроса, ... 7.6 10 5
Info! Золотая раздача, скачанное не засчитывается.
Торрент: Зарегистрирован [2015-07-01 09:58] · скачан: 19 раз
Статус: √ проверено
Размер: 1.09 GB
Как cкачать? Как скачать Свет над Россией через торрент | qTorrent

% Раздел Тема Автор DL S | L
Кино СССР [ 1.09 GB ] Свет над Россией [1947 СССР история DVDRip от AVP Studio] AVP Studio Скачать
1 | 0
Кино СССР [ 744 MB ] Свет над Россией [1947 СССР история DVDRip от AVP Studio] AVP Studio Скачать
1 | 0


>> Регистрируемся здесь <<






Отзывы и комментарии о схеме читаем и пишем здесь: ---> Отзывы и комментарии о схеме

Новые благодарочки в телеграм довольных пользователей:
скриншот   скриншот   скриншот   скриншот   скриншот
    Дорогой пользователь! Огромная просьба, поблагодарите релизера, оцените раздачу и оставьте свои комментарий, если Вы скачали Свет над Россией через торрент бесплатно! Внесите свою лепту в развитие PiratBit!
    Комментировать посты могут только пользователи прошедшие не сложную регистрацию
    Показать сообщения:    

    Свет над Россией через торрент
    Скачать бесплатно Свет над Россией
    Свет над Россией скачать торрент
    Свет над Россией смотреть онлайн
    Cкачать фильм Свет над Россией бесплатно
    Свет над Россией скачать торрент в хорошем качестве
    Свет над Россией смотреть онлайн бесплатно в хорошем качестве


    Вы не можете начинать темы
    Вы не можете отвечать на сообщения
    Вы не можете редактировать свои сообщения
    Вы не можете удалять свои сообщения
    Вы не можете голосовать в опросах
    Вы не можете прикреплять файлы к сообщениям
    Вы можете скачивать файлы