Ссылка на приватное зеркало всего за 1$. Внимание количество ограничено!!!

iTunes

1+1

iTunes

мы

WEB-DL

1

iTunes

Чернобыль

iTunes

Ральф против интернета

Лицензия

ПШазам

Лицензия

Оно 2

Лицензия

30
pack

Вам бонус

ВАЖНО

!!Акция!!

Alien_RageХит недели

RePack

Resident Evil 21

ИГРА 18+

pack

RePack

jed

!!Акция!!

Alien_Rage

RePack

fifa19

RePack

Assassins Creed: Odyssey

RePack

NEED FOR SPEED™ PAYBACK

3 сезон

9 сезон

Бесстыжие 9 сезон

Все сериалы

все сериалы на PB.wtf

RePack

FAR CRY 5
Ребята, катастрофически не хватает 1900р. для оплаты серверов за Октябрь (всвязи с блокировками трафик упал в 3 раза), 1-2р., выручайте.
  

Подвиг разведчика (Борис Барнет) [1947, СССР, драма, военный, DVDRip от AVP Studio] pb.wtf

Подвиг разведчика через торрент pb.wtf

Размер: 1.46 GB | Добавлен: 4 года 5 мес. назад | Торрент скачан:28 раз
Скачать  

01-07-2015 10:47 Подвиг разведчика Скачать торрент  

Подвиг разведчика Страна: СССР
Производство: Киевская киностудия

Жанр: драма, военный
Год выпуска: 1947
Продолжительность: 01:29:32

Перевод: Не требуется
Cубтитры: нет
Оригинальная аудиодорожка: русский

Режиссер: Борис Барнет

В ролях:
Павел Кадочников, Виктор Добровольский, Амвросий Бучма, Дмитрий Милютенко, Сергей Мартинсон, Елена Измайлова, Борис Барнет, Михаил Романов, Петр Аржанов, Евгений Балиев, Валерия Драга, Сергей Петров, Виктор Халатов, В. Улесова, Алексей Быков...

Описание:
Советский разведчик Алексей Федотов под именем Генриха Эккерта отправляется в оккупированную немцами Винницу. Его цель — добыть секретную переписку генерала Кюна со ставкой Гитлера. Радист, посланный к Алексею для связи, пойман немцами и расстрелян. Федотов вынужден искать связь через подполье, но случайно он узнает, что один из подпольщиков — провокатор. Блестящий профессионал не только выполняет задание по сбору ценнейшей информации, но и, возвращаясь на Родину, прихватывает с собой самого генерала.

Источник: DVD5 R5
Качество видео: DVDRip
Формат видео: AVI
Видео кодек: XviD
Аудио кодек: AC3
Видео: 688x512 (4:3), 25 fps, XviD ~ 2133 kbps avg, 0.242 bit/pixel
Аудио: 48 kHz, Dolby Digital AC3 2.0, 192 kbps

Раздача от:
Общее
Полное имя : Podvig.razvedchika.1947.DVDRip_[New-team]_by_AVP_Studio.avi
Формат : AVI
Формат/Информация : Audio Video Interleave
Размер файла : 1,46 Гбайт
Продолжительность : 1 ч. 29 м.
Общий поток : 2335 Кбит/сек
Программа кодирования : VirtualDubModRus 1.5.10.2 (build 2542/release)
Библиотека кодирования : VirtualDubMod build 2542/release

Видео
Идентификатор : 0
Формат : MPEG-4 Visual
Профиль формата : Advanced Simple@L5
Параметр BVOP формата : 1
Параметр QPel формата : Нет
Параметр GMC формата : Без точки перехода
Параметр матрицы формата : Выборочная
Идентификатор кодека : XVID
Идентификатор кодека/Подсказка : XviD
Продолжительность : 1 ч. 29 м.
Битрейт : 2133 Кбит/сек
Ширина : 688 пикселей
Высота : 512 пикселей
Соотношение сторон : 4:3
Частота кадров : 25,000 кадров/сек
Цветовое пространство : YUV
Субдискретизация насыщенности : 4:2:0
Битовая глубина : 8 бит
Тип развёртки : Прогрессивная
Метод сжатия : С потерями
Бит/(Пиксели*Кадры) : 0.242
Размер потока : 1,33 Гбайт (91%)
Библиотека кодирования : XviD 73

Аудио
Идентификатор : 1
Формат : AC-3
Формат/Информация : Audio Coding 3
Расширение режима : CM (complete main)
Параметр Endianness формата : Big
Идентификатор кодека : 2000
Продолжительность : 1 ч. 29 м.
Вид битрейта : Постоянный
Битрейт : 192 Кбит/сек
Каналы : 2 канала
Расположение каналов : Front: L R
Частота : 48,0 КГц
Битовая глубина : 16 бит
Метод сжатия : С потерями
Размер потока : 123 Мбайт (8%)
Выравнивание : Разделение по промежуткам
Продолжительность промежутка : 40 мс. (1,00 видеокадр)
Время предзагрузки промежутка : 500 мс
pb.wtf



Скачать Подвиг разведчика через торрент http://s016.radikal.ru/i334/1507/c5/7a812511a727.png Скачать фильм Подвиг разведчика через торрент бесплантно в хорошем качестве Описание:Советский разведчик Алексей Федотов под именем Генриха Эккерта отправляется в оккупированную немцами Винницу. Его цель — добыть ... 7.3 10 4
Info! Золотая раздача, скачанное не засчитывается.
Торрент: Зарегистрирован [2015-07-01 10:47] · скачан: 28 раз
Статус: √ проверено
Размер: 1.46 GB
Как cкачать? Как скачать Подвиг разведчика через торрент | qTorrent

% Раздел Тема Автор DL S | L
Кино СССР [ 1.46 GB ] Подвиг разведчика [1947 СССР военный DVDRip-AVC от AVP Studio] AVP Studio Скачать
1 | 0
Кино СССР [ 745 MB ] Подвиг разведчика [1947 СССР военный DVDRip от AVP Studio] AVP Studio Скачать
1 | 0

28-11-2019 20:33  

Отключить всю рекламу на сайте

    Дорогой пользователь! Огромная просьба, поблагодарите релизера, оцените раздачу и оставьте свои комментарий, если Вы скачали Подвиг разведчика через торрент бесплатно! Внесите свою лепту в развитие PiratBit!
    Комментировать посты могут только пользователи прошедшие не сложную регистрацию
    Показать сообщения:    

    Подвиг разведчика через торрент
    Скачать бесплатно Подвиг разведчика
    Подвиг разведчика скачать торрент
    Подвиг разведчика смотреть онлайн
    Cкачать фильм Подвиг разведчика бесплатно
    Подвиг разведчика скачать торрент в хорошем качестве
    Подвиг разведчика смотреть онлайн бесплатно в хорошем качестве


    Вы не можете начинать темы
    Вы не можете отвечать на сообщения
    Вы не можете редактировать свои сообщения
    Вы не можете удалять свои сообщения
    Вы не можете голосовать в опросах
    Вы не можете прикреплять файлы к сообщениям
    Вы можете скачивать файлы