1 сезон

1 сезон

iTunes

1

КиноПоиск HD

Кинопоиск HD

iTunes

13

1 сезон

RePack

30

Новинка

ВАЖНО

ИГРА 18+

pack

RePack

MK11
pack

Легкие деньги

RePack

jed

RePack

fifa19

RePack

RDR2

RePack

NEED FOR SPEED™ PAYBACK

4 сезон

9 сезон

Бесстыжие 9 сезон

Все сериалы

все сериалы на PB.wtf

RePack

FAR CRY 5
  
Magnet ссылка

В лучах славы / Friday Night Lights (Питер Берг) [2004, драма, спорт, BDRip, MVO] pb.wtf

В лучах славы через торрент pb.wtf

Размер: 2.18 GB | Добавлен: 5 лет 9 мес. назад | Торрент скачан:70 раз
Скачать  

01-07-2015 12:17 В лучах славы Скачать торрент  

В лучах славы / Friday Night Lights


Год выпуска: 2004
Страна: США
Жанр: драма, спорт

Продолжительность: 01:57:39
Перевод: Профессиональный (многоголосый)
Режиссер: Питер Берг
В ролях:

Дерек Люк (Boobie Miles), Лукас Блэк (Mike Winchell), Джей Эрнандес (Brian Chavez), Гаррет Хедлунд (Don Billingsley), Тим МакГроу (Charles Billingsley), Билли Боб Торнтон (Coach Gary Gaines), Ли Джексон (Ivory Christian), Ли Томпсон Янг (Chris Comer), Гроувер Колсон (L.V. Miles), Конни Бриттон (Sharon Gaines), Конни Купер (Mrs. Winchell), Каси Стивенс (Flippy)

Описание:
«В лучах славы» - это хроники сезона 1988 года из жизни компании храбрецов - «Permian High Panthers» - самой успешной футбольной команды в истории Техаса. Молодые участники команды воспринимают каждую игру как шанс вырваться из своего маленького городка, как мимолетную мечту о звездной славе, вершин которой они могут достичь уже к своему 18-летию.
В картине нарисован яркий и выразительный образ Одессы и похожих на нее городишек, разбросанных по всей Америке, где во время осеннего сезона один раз в неделю сам городок и все надежды его обитателей оживают под манящими пятничными ночными огнями.
Рейтинг:

MPAA: PG-13 - Детям до 13 лет просмотр не желателен

Качество: BDRip
Формат: AVI
Видео кодек: XviD
Аудио кодек: AC3
Видео: XviD, 720x304 (2.35:1), 1872 kbps, 23,976 fps, 0,357 bpp
Аудио №1: Русский / AC3 / 5.1 / 48 kHz / 384 kbps / 16 bit
Аудио №2: Английский / AC3 / 5.1 / 48 kHz / 384 kbps / 16 bit

Код:

General
Complete name                            : E:\Films\V.Luchah.Slavy.2004.DUAL.BDRip.XviD.AC3.avi
Format                                   : AVI
Format/Info                              : Audio Video Interleave
Format profile                           : OpenDML
File size                                : 2.18 GiB
Duration                                 : 1h 57mn
Overall bit rate                         : 2 657 Kbps
Movie name                               : В лучах славы / Friday Night Lights (2004)
Director                                 : SENATOR (BDRip 720)
Writing application                      : VirtualDubMod 1.5.10.2 (build 2540/release)
Copyright                                : HQ-ViDEO (www.hq-video.ru)
Comment                                  : 28.01.2009

Video
ID                                       : 0
Format                                   : MPEG-4 Visual
Format profile                           : Advanced Simple@L5
Format settings, BVOP                    : 2
Format settings, QPel                    : No
Format settings, GMC                     : No warppoints
Format settings, Matrix                  : Default (MPEG)
Muxing mode                              : Packed bitstream
Codec ID                                 : XVID
Codec ID/Hint                            : XviD
Duration                                 : 1h 57mn
Bit rate                                 : 1 872 Kbps
Width                                    : 720 pixels
Height                                   : 304 pixels
Display aspect ratio                     : 2.35:1
Frame rate                               : 23.976 fps
Color space                              : YUV
Chroma subsampling                       : 4:2:0
Bit depth                                : 8 bits
Scan type                                : Progressive
Compression mode                         : Lossy
Bits/(Pixel*Frame)                       : 0.357
Stream size                              : 1.54 GiB (70%)
Writing library                          : XviD 1.2.1 (UTC 2008-12-04)

Audio #1
ID                                       : 1
Format                                   : AC-3
Format/Info                              : Audio Coding 3
Mode extension                           : CM (complete main)
Codec ID                                 : 2000
Duration                                 : 1h 57mn
Bit rate mode                            : Constant
Bit rate                                 : 384 Kbps
Channel(s)                               : 6 channels
Channel positions                        : Front: L C R, Side: L R, LFE
Sampling rate                            : 48.0 KHz
Bit depth                                : 16 bits
Compression mode                         : Lossy
Stream size                              : 323 MiB (14%)
Alignment                                : Split accross interleaves
Interleave, duration                     : 42 ms (1.00 video frame)
Interleave, preload duration             : 500 ms

Audio #2
ID                                       : 2
Format                                   : AC-3
Format/Info                              : Audio Coding 3
Mode extension                           : CM (complete main)
Codec ID                                 : 2000
Duration                                 : 1h 57mn
Bit rate mode                            : Constant
Bit rate                                 : 384 Kbps
Channel(s)                               : 6 channels
Channel positions                        : Front: L C R, Side: L R, LFE
Sampling rate                            : 48.0 KHz
Bit depth                                : 16 bits
Compression mode                         : Lossy
Stream size                              : 323 MiB (14%)
Alignment                                : Split accross interleaves
Interleave, duration                     : 42 ms (1.00 video frame)
Interleave, preload duration             : 500 ms

скриншот   скриншот   скриншот  
pb.wtf



Скачать В лучах славы через торрент https://pic.kartinco.top/images/11/bu5lx.jpg Скачать фильм В лучах славы через торрент бесплантно в хорошем качестве Описание: «В лучах славы» - это хроники сезона 1988 года из жизни компании храбрецов - «Permian High Panthers» - самой успешной футбольной ... 8.7 10 9
Info! Золотая раздача, скачанное не засчитывается.
Торрент: Зарегистрирован [2015-07-01 12:17] · скачан: 70 раз
Статус: √ проверено
Размер: 2.18 GB
Как cкачать? Как скачать В лучах славы через торрент | UTorrent

% Раздел Тема Автор DL S | L
Фильмы [HD 720p, 1080p] (Хороший звук DUB, MVO) [ 15.93 GB ] В лучах славы / Friday Night Lights [2004 BDRip 1080p MVO + Оригинал] AlexKa Скачать
1 | 0


Последний раз редактировалось: 10oN (2015-07-07 16:34), всего редактировалось 1 раз

28-11-2019 20:33  

Отключить всю рекламу на сайте

01-07-2015 19:45 В лучах славы Скачать торрент  

Отличный фильм,всем советую посмотреть.pb.wtf



02-07-2015 04:31 В лучах славы Скачать торрент  

Ten0N писал(а):

Аудио №1: AC3 / 5.1 / 48 kHz / 384 kbps / 16 bit
Аудио №2: AC3 / 5.1 / 48 kHz / 384 kbps / 16 bit

Уже было и не раз... Подписываем дорожки плиз.pb.wtf



07-07-2015 16:36 В лучах славы Скачать торрент  

Ворон, дык, твоя же прога инфу выдает, или ты думаешь, что я спецом это удаляю? =)pb.wtf



07-07-2015 18:10 В лучах славы Скачать торрент  

Ten0N, Ну ты не пиши ерунды. Раньше вручную все оформляли и проблем не было, а тут всего пару кликов и проблема в конце добавить пару букв)= Она определяет язык дорожки только в мкв файлах и то если эти дорожки были подписаны. Прочти еще раз правила и там не указанно что если пользуешься программой от ворона, то можно упускать пункты из за того что программа не выдает их sarcastic хех посмеялся от души, я еще и виноват остался....pb.wtf



08-07-2015 07:38 В лучах славы Скачать торрент  

Ворон, Я не говорю что ты виноват, я же не знал что она "через раз" инфу выдает =)pb.wtf



    Дорогой пользователь! Огромная просьба, поблагодарите релизера, оцените раздачу и оставьте свои комментарий, если Вы скачали В лучах славы через торрент бесплатно! Внесите свою лепту в развитие PiratBit!
    Комментировать посты могут только пользователи прошедшие не сложную регистрацию
    Показать сообщения:    

    В лучах славы через торрент
    Скачать бесплатно В лучах славы
    В лучах славы скачать торрент
    В лучах славы смотреть онлайн
    Cкачать фильм В лучах славы бесплатно
    В лучах славы скачать торрент в хорошем качестве
    В лучах славы смотреть онлайн бесплатно в хорошем качестве


    Вы не можете начинать темы
    Вы не можете отвечать на сообщения
    Вы не можете редактировать свои сообщения
    Вы не можете удалять свои сообщения
    Вы не можете голосовать в опросах
    Вы не можете прикреплять файлы к сообщениям
    Вы можете скачивать файлы