новый адрес
Ссылка на приватное зеркало всего за 1$. Внимание количество ограничено!!!

iTunes

1+1

iTunes

мы

iTunes

1

iTunes

Чернобыль

iTunes

Ральф против интернета

Лицензия

ПШазам

Лицензия

Оно 2

Лицензия

30
pack

Вам бонус

ВАЖНО

!!Акция!!

Alien_RageХит недели

RePack

Resident Evil 21

ИГРА 18+

pack

RePack

jed

!!Акция!!

Alien_Rage

RePack

fifa19

RePack

Assassins Creed: Odyssey

RePack

NEED FOR SPEED™ PAYBACK

3 сезон

9 сезон

Бесстыжие 9 сезон

Все сериалы

все сериалы на PB.wtf

RePack

FAR CRY 5
Ребята, катастрофически не хватает 1900р. для оплаты серверов за Октябрь (всвязи с блокировками трафик упал в 3 раза), 1-2р., выручайте.
  

Миклухо-Маклай (Александр Разумный) [1947, СССР, драма, биография, DVDRip-AVC от AVP Studio] pb.wtf

Миклухо-Маклай через торрент pb.wtf

Размер: 1.09 GB | Добавлен: 4 года 4 мес. назад | Торрент скачан:10 раз
Скачать  

01-07-2015 18:57 Миклухо-Маклай Скачать торрент  

Миклухо-Маклай
Страна: СССР
Производство: Моснаучфильм

Жанр: драма, биография
Год выпуска: 1947
Продолжительность: 01:29:17

Перевод: Не требуется
Cубтитры: нет
Оригинальная аудиодорожка: русский

Режиссер: Александр Разумный

В ролях:
Сергей Курилов, Галина Григорьева, Михаил Астангов, Алексей Максимов, Георгий Бударов, Валентина Куинджи, Вейланд Родд, Лев Фенин, Роберт Робинсон, Джим Комогоров...

Описание:
Биографический фильм о выдающемся русском этнографе Николае Николаевиче Миклухо-Маклае (1846-1888) и его путешествиях в Австралию и Океанию, где он был одним из первых ученых, изучавших жизнь туземцев.

Источник: DVD5 R5
Качество видео: DVDRip-AVC
Формат видео: MKV
Видео кодек: H.264
Аудио кодек: AC3
Видео: 696->762x572 (4:3), 25 fps, H264 ~ 1552 kbps avg, 0.156 bit/pixel
Аудио: 48 kHz, Dolby Digital AC3 2.0, 192 kbps

Раздача от:
Общее
Полное имя : Miklucho.maklay.1947.DVDRip-AVC_[New-team]_by_AVP_Studio.mkv
Формат : Matroska
Версия формата : Version 2
Размер файла : 1,09 Гбайт
Продолжительность : 1 ч. 29 м.
Общий поток : 1746 Кбит/сек
Дата кодирования : UTC 2015-06-25 21:58:48
Программа кодирования : mkvmerge v6.1.0 ('Old Devil') built on Mar 4 2013 09:10:42
Библиотека кодирования : libebml v1.3.0 + libmatroska v1.4.0

Видео
Идентификатор : 1
Формат : AVC
Формат/Информация : Advanced Video Codec
Профиль формата : High@L4.1
Параметр CABAC формата : Да
Параметр ReFrames формата : 8 кадров
Идентификатор кодека : V_MPEG4/ISO/AVC
Продолжительность : 1 ч. 29 м.
Битрейт : 1552 Кбит/сек
Ширина : 696 пикселей
Высота : 572 пикселя
Соотношение сторон : 4:3
Режим частоты кадров : Постоянный
Частота кадров : 25,000 кадров/сек
Цветовое пространство : YUV
Субдискретизация насыщенности : 4:2:0
Битовая глубина : 8 бит
Тип развёртки : Прогрессивная
Бит/(Пиксели*Кадры) : 0.156
Размер потока : 970 Мбайт (87%)
Библиотека кодирования : x264 core 138 r2356 a1d3d17
Настройки программы : cabac=1 / ref=8 / deblock=1:-2:-1 / analyse=0x3:0x113 / me=umh / subme=10 / psy=1 / psy_rd=1.00:0.05 / mixed_ref=1 / me_range=32 / chroma_me=1 / trellis=2 / 8x8dct=1 / cqm=0 / deadzone=21,11 / fast_pskip=0 / chroma_qp_offset=-3 / threads=6 / lookahead_threads=1 / sliced_threads=0 / nr=0 / decimate=0 / interlaced=0 / bluray_compat=0 / constrained_intra=0 / bframes=8 / b_pyramid=2 / b_adapt=2 / b_bias=0 / direct=3 / weightb=1 / open_gop=0 / weightp=2 / keyint=250 / keyint_min=25 / scenecut=40 / intra_refresh=0 / rc=2pass / mbtree=0 / bitrate=1552 / ratetol=1.0 / qcomp=0.60 / qpmin=0 / qpmax=69 / qpstep=4 / cplxblur=20.0 / qblur=0.5 / ip_ratio=1.40 / pb_ratio=1.30 / aq=1:1.00
Default : Да
Forced : Нет

Аудио
Идентификатор : 2
Формат : AC-3
Формат/Информация : Audio Coding 3
Расширение режима : CM (complete main)
Параметр Endianness формата : Big
Идентификатор кодека : A_AC3
Продолжительность : 1 ч. 29 м.
Вид битрейта : Постоянный
Битрейт : 192 Кбит/сек
Каналы : 2 канала
Расположение каналов : Front: L R
Частота : 48,0 КГц
Битовая глубина : 16 бит
Метод сжатия : С потерями
Размер потока : 123 Мбайт (11%)
Default : Да
Forced : Нет
pb.wtf



Скачать Миклухо-Маклай через торрент http://s020.radikal.ru/i709/1506/7a/4445146be4f4.png Скачать фильм Миклухо-Маклай через торрент бесплантно в хорошем качестве Описание:Биографический фильм о выдающемся русском этнографе Николае Николаевиче Миклухо-Маклае (1846-1888) и его путешествиях в Австралию ... 8.5 10 6
Info! Золотая раздача, скачанное не засчитывается.
Торрент: Зарегистрирован [2015-07-01 18:57] · скачан: 10 раз
Статус: √ проверено
Размер: 1.09 GB
Как cкачать? Как скачать Миклухо-Маклай через торрент | qTorrent

01-07-2015 20:45 Миклухо-Маклай Скачать торрент  

Миклуха Макфлайpb.wtf



01-07-2015 20:54 Миклухо-Маклай Скачать торрент  

RomaXP писал(а):

Миклуха Макфлай

таки Миклухо-Маклайpb.wtf



    Дорогой пользователь! Огромная просьба, поблагодарите релизера, оцените раздачу и оставьте свои комментарий, если Вы скачали Миклухо-Маклай через торрент бесплатно! Внесите свою лепту в развитие PiratBit!
    Комментировать посты могут только пользователи прошедшие не сложную регистрацию
    Показать сообщения:    

    Миклухо-Маклай через торрент
    Скачать бесплатно Миклухо-Маклай
    Миклухо-Маклай скачать торрент
    Миклухо-Маклай смотреть онлайн
    Cкачать фильм Миклухо-Маклай бесплатно
    Миклухо-Маклай скачать торрент в хорошем качестве
    Миклухо-Маклай смотреть онлайн бесплатно в хорошем качестве


    Вы не можете начинать темы
    Вы не можете отвечать на сообщения
    Вы не можете редактировать свои сообщения
    Вы не можете удалять свои сообщения
    Вы не можете голосовать в опросах
    Вы не можете прикреплять файлы к сообщениям
    Вы можете скачивать файлы