Ссылка на приватное зеркало нашего сайта всего за 1$. Внимание количество ограничено!!!

2 сезон

iTunes

1 сезон

1

iTunes

iTunes

iTunes

1 сезон

RePack

30

ИГРА 18+

pack

ВАЖНО

!!Акция!!

Alien_RageХит недели

RePack

MK11
pack

Забери бонус

RePack

jed

!!Акция!!

Alien_Rage

RePack

fifa19

RePack

Assassins Creed: Odyssey

RePack

NEED FOR SPEED™ PAYBACK

4 сезон

9 сезон

Бесстыжие 9 сезон

Все сериалы

все сериалы на PB.wtf

RePack

FAR CRY 5
  

Кот Котофеевич (Галина Баринова) [1981 г., Мультфильм, короткометражка, DVDRemux] pb.wtf

Кот Котофеевич через торрент pb.wtf

Размер: 450 MB | Добавлен: 5 лет 3 мес. назад | Торрент скачан:34 раза
Скачать  

02-07-2015 15:02 Кот Котофеевич Скачать торрент  

Кот КотофеевичГод выпуска: 1981
Страна: СССР
Жанр: Мультфильм, короткометражка

Режиссёр: Галина Баринова
В ролях: Николай Караченцов, Валентина Талызина, Зинаида Нарышкина, Рогволд Суховерко, Гарри Бардин, Георгий Бурков, Петр Вишняков

Продолжительность: 00:09:34
Перевод: Не требуется
Субтитры: Нет

Описание: По одноимённой русской народной сказке.
Выгнали Кота из дому из-за непригодности к ловле мышей. Попав в лес, он познакомился с Лисой - Лизаветой Ивановной. Ей представился Тигром. Узнали Заяц, Медведь и Волк о тигре и решили посмотреть на диковинку. Лиса сказала, чтоб принесли подарки под большой дуб, а тогда она и Тигра своего приведёт…



Автор ремукса: Egorijj.Alien

Качество: DVDRemux
Формат: MKV
Видео кодек: MPEG2
Аудио кодек: AC3
Видео: 6253 kbps, 720x576 (4:3), 25 fps
Аудио: AC3, 192 kbps, 2 ch, 48,0 khz
General
Unique ID : 250085209272122038391675887660352104574 (0xBC24A8C919C60628BB20CA282ED7687E)
Complete name : D:\Видео\Двд-ремикс\Кот Котофеевич.mkv
Format : Matroska
Format version : Version 4 / Version 2
File size : 450 MiB
Duration : 9mn 34s
Overall bit rate : 6 576 Kbps
Encoded date : UTC 2015-07-01 17:07:16
Writing application : mkvmerge v7.0.0 ('Where We Going') 64bit built on Jun 9 2014 15:16:27
Writing library : libebml v1.3.0 + libmatroska v1.4.1
DURATION : 00:09:34.496000000
NUMBER_OF_FRAMES : 17953
NUMBER_OF_BYTES : 13787904
_STATISTICS_WRITING_APP : mkvmerge v7.0.0 ('Where We Going') 64bit built on Jun 9 2014 15:16:27
_STATISTICS_WRITING_DATE_UTC : 2015-07-01 17:07:16
_STATISTICS_TAGS : BPS DURATION NUMBER_OF_FRAMES NUMBER_OF_BYTES

Video
ID : 1
Format : MPEG Video
Format version : Version 2
Format profile : Main@Main
Format settings, BVOP : No
Format settings, Matrix : Custom
Codec ID : V_MPEG2
Codec ID/Info : MPEG 1 or 2 Video
Duration : 9mn 34s
Bit rate : 6 253 Kbps
Maximum bit rate : 6 400 Kbps
Width : 720 pixels
Height : 576 pixels
Display aspect ratio : 4:3
Frame rate mode : Constant
Frame rate : 25.000 fps
Standard : PAL
Color space : YUV
Chroma subsampling : 4:2:0
Bit depth : 8 bits
Scan type : Interlaced
Scan order : Bottom Field First
Compression mode : Lossy
Bits/(Pixel*Frame) : 0.603
Time code of first frame : 00:00:00:00
Time code source : Group of pictures header
Stream size : 428 MiB (95%)
Default : Yes
Forced : No

Audio
ID : 2
Format : AC-3
Format/Info : Audio Coding 3
Mode extension : CM (complete main)
Format settings, Endianness : Big
Codec ID : A_AC3
Duration : 9mn 34s
Bit rate mode : Constant
Bit rate : 192 Kbps
Channel(s) : 2 channels
Channel positions : Front: L R
Sampling rate : 48.0 KHz
Bit depth : 16 bits
Compression mode : Lossy
Stream size : 13.1 MiB (3%)
Default : Yes
Forced : No
pb.wtf



Скачать Кот Котофеевич через торрент http://i69.fastpic.ru/big/2015/0702/c0/38395f69d7b60e6a9f030e2ae74748c0.jpg Скачать фильм Кот Котофеевич через торрент бесплантно в хорошем качестве Описание: По одноимённой русской народной сказке.Выгнали Кота из дому из-за непригодности к ловле мышей. Попав в лес, он познакомился с ... 10 10 3
Info! Золотая раздача, скачанное не засчитывается.
Торрент: Зарегистрирован [2015-07-02 15:02] · скачан: 34 раз
Статус: √ проверено
Размер: 450 MB
Как cкачать? Как скачать Кот Котофеевич через торрент | qTorrent

28-11-2019 20:33  

Отключить всю рекламу на сайте

    Дорогой пользователь! Огромная просьба, поблагодарите релизера, оцените раздачу и оставьте свои комментарий, если Вы скачали Кот Котофеевич через торрент бесплатно! Внесите свою лепту в развитие PiratBit!
    Комментировать посты могут только пользователи прошедшие не сложную регистрацию
    Показать сообщения:    

    Кот Котофеевич через торрент
    Скачать бесплатно Кот Котофеевич
    Кот Котофеевич скачать торрент
    Кот Котофеевич смотреть онлайн
    Cкачать фильм Кот Котофеевич бесплатно
    Кот Котофеевич скачать торрент в хорошем качестве
    Кот Котофеевич смотреть онлайн бесплатно в хорошем качестве


    Вы не можете начинать темы
    Вы не можете отвечать на сообщения
    Вы не можете редактировать свои сообщения
    Вы не можете удалять свои сообщения
    Вы не можете голосовать в опросах
    Вы не можете прикреплять файлы к сообщениям
    Вы можете скачивать файлы