Ссылка на приватное зеркало нашего сайта всего за 1$. Внимание количество ограничено!!!

2 сезон

iTunes

1 сезон

1

2 сезон

2 сезон

iTunes

1 сезон

RePack

30

Ultimate

ВАЖНО

ИГРА 18+

pack

RePack

MK11
pack

Забери бонус

RePack

jed

!!Акция!!

Alien_Rage

RePack

fifa19

RePack

Assassins Creed: Odyssey

RePack

NEED FOR SPEED™ PAYBACK

4 сезон

9 сезон

Бесстыжие 9 сезон

Все сериалы

все сериалы на PB.wtf

RePack

FAR CRY 5
  

За пределами / Род человеческий / Выжившая / Extant / Сезон: 2 / Серии 1-13 из 13 (Дэн Лернер / Dan Lerner, Кристин Мур / Christine Moore, Адам Аркин / Adam Arkin) [2015, США, фантастика, триллер, драма, WEB-DLRip] MVO [BaibaKo] pb.wtf

За пределами через торрент pb.wtf

Размер: 6.82 GB | Добавлен: 5 лет 2 мес. назад | Торрент скачан:128 раз
Скачать  

03-07-2015 01:31 За пределами Скачать торрент  

За пределами / Род человеческий / Выжившая / Extant
«Жизнь всегда найдет способ»


  • Год выпуска: 2015
  • Страна: США
  • Жанр: фантастика, триллер, драма
  • Продолжительность: 00:43:23 (Серия)
  • Перевод: Профессиональный многоголосый закадровый [BaibaKo]

  • Режиссер: Дэн Лернер / Dan Lerner, Кристин Мур / Christine Moore, Адам Аркин / Adam Arkin
  • В ролях:

    Холли Берри (Molly Woods), Пирс Гэнон (Ethan Woods), Грэйс Гаммер (Julie Gelineau), Горан Вишнич (John Woods), Хироюки Санада (Hideki Yasumoto), Майкл О’Нил (Alan Sparks), Камрин Менхейм (Sam Barton), Джеффри Дин Морган (JD Richter), Дэвид Моррисси (Tobias Shepherd), Мори Стерлинг (Gordon Kern), Серджо Харфорд (Marcus Dawkins), Брэд Бейер (Harmon Kryger)

  • Описание:
    Молли Уоттс - женщина редкой и необычной неженской профессии, она космонавт. После космической экспедиции, длиною в год, Молли снова дома со своей любимой семьёй: маленьким сынком Итаном и мужем Джоном. Как она этого ждала. Проведя целый год во Вселенной Молли узнает, что она находится в «интересном положении» - срок её беременности около двух месяцев... Как доказать мужу, что совесть её чиста? Как такое могло получиться и кого она носит внутри?..
  • Рейтинг:



  • Качество: WEB-DLRip
  • Формат: :AVI
  • Видео кодек: XviD
  • Аудио кодек: MP3
  • Видео: 720x400 (16:9), 1498 kbps, 23,976 fps, 0,217 bpp
  • Аудио №1: 2.0 / 48 kHz / 192 kbps
  • Аудио №2: 2.0 / 48 kHz / 192 kbps
  • Релиз от: GEKADOL

    Код:

    Внимание! Раздача ведётся путём добавления новых серий; при каждом добавлении создаётся новый торрент. Чтобы начать докачку новой серии, пользователям необходимо сделать следующее:
    (1) остановить скачивание,
    (2) удалить старый торрент у себя из клиента (старые серии удалять не надо),
    (3) скачать новый торрент и запустить его у себя в клиенте вместо старого, при этом указать клиенту путь в старую папку куда и должно происходить скачивание новых серий.
    Ваш клиент при этом должен произвести хеширование (проверку) старой папки (если не производит сам - помогите ему сделать это), и будет докачивать только те серии которых у вас ещё нет. Старые серии при этом не удаляются, а продолжают раздаваться!
    Eсли вы уже удалили старые серии, то предотвратить повторную закачку старых серий можно, отжав галочку в соответствующих местах при запуске нового торрента. По возможности, желательно не удалять старые серии как можно дольше чтобы релизёр не столько продолжал раздавать старые серии, а смог сконцентрироваться на новых.


    Код:

    General
    Complete name                            : F:\Extant.(S02) bbk\Extant.s02e01.WEB-DLRip.XviD.Rus.Eng.BaibaKo.tv.avi
    Format                                   : AVI
    Format/Info                              : Audio Video Interleave
    File size                                : 589 MiB
    Duration                                 : 43mn 23s
    Overall bit rate                         : 1 897 Kbps
    Writing application                      : VirtualDubMod 1.5.10.3 | www.virtualdub-fr.org || (build 2550/release)
    Writing library                          : VirtualDubMod build 2550/release

    Video
    ID                                       : 0
    Format                                   : MPEG-4 Visual
    Format profile                           : Advanced Simple@L5
    Format settings, BVOP                    : 2
    Format settings, QPel                    : No
    Format settings, GMC                     : No warppoints
    Format settings, Matrix                  : Custom
    Codec ID                                 : XVID
    Codec ID/Hint                            : XviD
    Duration                                 : 43mn 23s
    Bit rate                                 : 1 499 Kbps
    Width                                    : 720 pixels
    Height                                   : 400 pixels
    Display aspect ratio                     : 16:9
    Frame rate                               : 23.976 fps
    Color space                              : YUV
    Chroma subsampling                       : 4:2:0
    Bit depth                                : 8 bits
    Scan type                                : Progressive
    Compression mode                         : Lossy
    Bits/(Pixel*Frame)                       : 0.217
    Stream size                              : 465 MiB (79%)
    Writing library                          : XviD 1.2.1 (UTC 2008-12-04)

    Audio #1
    ID                                       : 1
    Format                                   : MPEG Audio
    Format version                           : Version 1
    Format profile                           : Layer 3
    Codec ID                                 : 55
    Codec ID/Hint                            : MP3
    Duration                                 : 43mn 23s
    Bit rate mode                            : Constant
    Bit rate                                 : 192 Kbps
    Channel(s)                               : 2 channels
    Sampling rate                            : 48.0 KHz
    Compression mode                         : Lossy
    Stream size                              : 59.6 MiB (10%)
    Alignment                                : Aligned on interleaves
    Interleave, duration                     : 42 ms (1.00 video frame)
    Interleave, preload duration             : 504 ms
    Writing library                          : LAME3.99r
    Encoding settings                        : -m s -V 4 -q 0 -lowpass 18.6 -b 192

    Audio #2
    ID                                       : 2
    Format                                   : MPEG Audio
    Format version                           : Version 1
    Format profile                           : Layer 3
    Codec ID                                 : 55
    Codec ID/Hint                            : MP3
    Duration                                 : 43mn 23s
    Bit rate mode                            : Constant
    Bit rate                                 : 192 Kbps
    Channel(s)                               : 2 channels
    Sampling rate                            : 48.0 KHz
    Compression mode                         : Lossy
    Stream size                              : 59.6 MiB (10%)
    Alignment                                : Aligned on interleaves
    Interleave, duration                     : 42 ms (1.00 video frame)
    Interleave, preload duration             : 504 ms
    Writing library                          : LAME3.99r
    Encoding settings                        : -m s -V 4 -q 0 -lowpass 18.6 -b 192




    Скриншоты:
    скриншот   скриншот   скриншот   скриншот   скриншот  
    скриншот  

    Раздача ведётся путём добавления новых серий. Добавлена 13 серия (12.09.2015).Просьба перекачать торрент файл.

    pb.wtf



  • Скачать За пределами через торрент http://i2.imageban.ru/out/2015/07/03/7335e613f90cb00cfe9e6ae107fc0799.jpg Скачать фильм За пределами через торрент бесплантно в хорошем качестве Описание: Молли Уоттс - женщина редкой и необычной неженской профессии, она космонавт. После космической экспедиции, длиною в год, Молли ... 9.7 10 18
    Info! Золотая раздача, скачанное не засчитывается.
    Торрент: Зарегистрирован [2015-09-12 02:06] · скачан: 128 раз
    Статус: √ проверено
    Размер: 6.82 GB
    Как cкачать? Как скачать За пределами через торрент | qTorrent

    % Раздел Тема Автор DL S | L
    Зарубежные сериалы [ 21.91 GB ] За пределами / Род человеческий / Выжившая / Extant / Сезон: 2 / Серии 1-13 из 13 [2015 WEB-DL 1080p] MVO [BaibaKo] GEKADOL Скачать
    1 | 0
    Зарубежные сериалы [ 18.22 GB ] За пределами / Род человеческий / Выжившая / Extant / Сезон: 2 / Серии 1-13 из 13 [2015 WEB-DL 720p] MVO [BaibaKo] GEKADOL Скачать
    1 | 0


    Последний раз редактировалось: GEKADOL (2015-09-12 02:06), всего редактировалось 13 раз(а)

    28-11-2019 20:33  

    Отключить всю рекламу на сайте

    03-07-2015 11:09 За пределами Скачать торрент  

    Гекадол, ну что тут сказать... респектище, как обычно. человек-сюрприз)) первый сезон досматривал через силу, но концовка была... обещающая)) спс, дядька)pb.wtf



    03-07-2015 13:32 За пределами Скачать торрент  

    tamburetko писал(а):

    Гекадол, ну что тут сказать... респектище, как обычно. человек-сюрприз)) первый сезон досматривал через силу, но концовка была... обещающая)) спс, дядька)

    Вам спасибо) pb.wtf



      Дорогой пользователь! Огромная просьба, поблагодарите релизера, оцените раздачу и оставьте свои комментарий, если Вы скачали За пределами через торрент бесплатно! Внесите свою лепту в развитие PiratBit!
      Комментировать посты могут только пользователи прошедшие не сложную регистрацию
      Показать сообщения:    

      За пределами через торрент
      Скачать бесплатно За пределами
      За пределами скачать торрент
      За пределами смотреть онлайн
      Cкачать фильм За пределами бесплатно
      За пределами скачать торрент в хорошем качестве
      За пределами смотреть онлайн бесплатно в хорошем качестве


      Вы не можете начинать темы
      Вы не можете отвечать на сообщения
      Вы не можете редактировать свои сообщения
      Вы не можете удалять свои сообщения
      Вы не можете голосовать в опросах
      Вы не можете прикреплять файлы к сообщениям
      Вы можете скачивать файлы