Ссылка на приватное зеркало нашего сайта всего за 1$. Внимание количество ограничено!!!

2 сезон

iTunes

1 сезон

1

2 сезон

2 сезон

iTunes

1 сезон

RePack

30

Новинка

ВАЖНО

ИГРА 18+

pack

RePack

MK11
pack

Забери бонус

RePack

jed

!!Акция!!

Alien_Rage

RePack

fifa19

RePack

Assassins Creed: Odyssey

RePack

NEED FOR SPEED™ PAYBACK

4 сезон

9 сезон

Бесстыжие 9 сезон

Все сериалы

все сериалы на PB.wtf

RePack

FAR CRY 5
  

За пределами / Род человеческий / Выжившая / Extant / Сезон: 2 / Серии 1-13 из 13 (Дэн Лернер / Dan Lerner, Кристин Мур / Christine Moore, Адам Аркин / Adam Arkin) [2015, США, фантастика, триллер, драма, WEB-DL 1080p] MVO [BaibaKo] pb.wtf

За пределами через торрент pb.wtf

Размер: 21.91 GB | Добавлен: 5 лет 2 мес. назад | Торрент скачан:18 раз
Скачать  

03-07-2015 01:44 За пределами Скачать торрент  

За пределами / Род человеческий / Выжившая / Extant
«Жизнь всегда найдет способ»


  • Год выпуска: 2015
  • Страна: США
  • Жанр: фантастика, триллер, драма
  • Продолжительность: 00:43:23 (Серия)
  • Перевод: Профессиональный многоголосый закадровый [BaibaKo]

  • Режиссер: Дэн Лернер / Dan Lerner, Кристин Мур / Christine Moore, Адам Аркин / Adam Arkin
  • В ролях:

    Холли Берри (Molly Woods), Пирс Гэнон (Ethan Woods), Грэйс Гаммер (Julie Gelineau), Горан Вишнич (John Woods), Хироюки Санада (Hideki Yasumoto), Майкл О’Нил (Alan Sparks), Камрин Менхейм (Sam Barton), Джеффри Дин Морган (JD Richter), Дэвид Моррисси (Tobias Shepherd), Мори Стерлинг (Gordon Kern), Серджо Харфорд (Marcus Dawkins), Брэд Бейер (Harmon Kryger)

  • Описание:
    Молли Уоттс - женщина редкой и необычной неженской профессии, она космонавт. После космической экспедиции, длиною в год, Молли снова дома со своей любимой семьёй: маленьким сынком Итаном и мужем Джоном. Как она этого ждала. Проведя целый год во Вселенной Молли узнает, что она находится в «интересном положении» - срок её беременности около двух месяцев... Как доказать мужу, что совесть её чиста? Как такое могло получиться и кого она носит внутри?..
  • Рейтинг:



  • Качество: WEB-DL 1080p
  • Формат: :MKV
  • Видео кодек: AVC
  • Аудио кодек: AC3
  • Видео: 1920x1080 (16:9), 4825 kbps, 23,976 fps, 0,097 bpp
  • Аудио №1: русский / 5.1 / 48 kHz / 384 kbps / 16 bit |[BaibaKo]|
  • Аудио №2: английский / 5.1 / 48 kHz / 384 kbps / 16 bit
  • Релиз от: GEKADOL

    Код:

    Внимание! Раздача ведётся путём добавления новых серий; при каждом добавлении создаётся новый торрент. Чтобы начать докачку новой серии, пользователям необходимо сделать следующее:
    (1) остановить скачивание,
    (2) удалить старый торрент у себя из клиента (старые серии удалять не надо),
    (3) скачать новый торрент и запустить его у себя в клиенте вместо старого, при этом указать клиенту путь в старую папку куда и должно происходить скачивание новых серий.
    Ваш клиент при этом должен произвести хеширование (проверку) старой папки (если не производит сам - помогите ему сделать это), и будет докачивать только те серии которых у вас ещё нет. Старые серии при этом не удаляются, а продолжают раздаваться!
    Eсли вы уже удалили старые серии, то предотвратить повторную закачку старых серий можно, отжав галочку в соответствующих местах при запуске нового торрента. По возможности, желательно не удалять старые серии как можно дольше чтобы релизёр не столько продолжал раздавать старые серии, а смог сконцентрироваться на новых.


    Код:

    General
    Unique ID                                : 193343590321019935646671156814188876306 (0x91749EFADE7EE72D8F515DF0E6079212)
    Complete name                            : F:\Extant.(S02).1080p.bbk\Extant.s02e01.HD1080p.WEB-DL.Rus.Eng.BaibaKo.tv.mkv
    Format                                   : Matroska
    Format version                           : Version 4 / Version 2
    File size                                : 1.73 GiB
    Duration                                 : 43mn 23s
    Overall bit rate                         : 5 707 Kbps
    Encoded date                             : UTC 2015-07-02 21:33:42
    Writing application                      : mkvmerge v7.9.0 ('Birds') 64bit
    Writing library                          : libebml v1.3.1 + libmatroska v1.4.2
    DURATION                                 : 00:43:23.872000000
    NUMBER_OF_FRAMES                         : 81371
    NUMBER_OF_BYTES                          : 124985856
    _STATISTICS_WRITING_APP                  : mkvmerge v7.9.0 ('Birds') 64bit
    _STATISTICS_WRITING_DATE_UTC             : 2015-07-02 21:33:42
    _STATISTICS_TAGS                         : BPS DURATION NUMBER_OF_FRAMES NUMBER_OF_BYTES

    Video
    ID                                       : 1
    Format                                   : AVC
    Format/Info                              : Advanced Video Codec
    Format profile                           : High@L4.0
    Format settings, CABAC                   : Yes
    Format settings, ReFrames                : 4 frames
    Codec ID                                 : V_MPEG4/ISO/AVC
    Duration                                 : 43mn 23s
    Bit rate                                 : 4 826 Kbps
    Width                                    : 1 920 pixels
    Height                                   : 1 080 pixels
    Display aspect ratio                     : 16:9
    Frame rate                               : 23.976 fps
    Color space                              : YUV
    Chroma subsampling                       : 4:2:0
    Bit depth                                : 8 bits
    Scan type                                : Progressive
    Bits/(Pixel*Frame)                       : 0.097
    Stream size                              : 1.46 GiB (85%)
    Language                                 : English
    Default                                  : Yes
    Forced                                   : No
    Color primaries                          : BT.709-5, BT.1361, IEC 61966-2-4, SMPTE RP177
    Transfer characteristics                 : BT.709-5, BT.1361
    Matrix coefficients                      : BT.709-5, BT.1361, IEC 61966-2-4 709, SMPTE RP177

    Audio #1
    ID                                       : 2
    Format                                   : AC-3
    Format/Info                              : Audio Coding 3
    Mode extension                           : CM (complete main)
    Codec ID                                 : A_AC3
    Duration                                 : 43mn 23s
    Bit rate mode                            : Constant
    Bit rate                                 : 384 Kbps
    Channel(s)                               : 6 channels
    Channel positions                        : Front: L C R, Side: L R, LFE
    Sampling rate                            : 48.0 KHz
    Bit depth                                : 16 bits
    Compression mode                         : Lossy
    Stream size                              : 119 MiB (7%)
    Language                                 : Russian
    Default                                  : Yes
    Forced                                   : No

    Audio #2
    ID                                       : 3
    Format                                   : AC-3
    Format/Info                              : Audio Coding 3
    Mode extension                           : CM (complete main)
    Codec ID                                 : A_AC3
    Duration                                 : 43mn 23s
    Bit rate mode                            : Constant
    Bit rate                                 : 384 Kbps
    Channel(s)                               : 6 channels
    Channel positions                        : Front: L C R, Side: L R, LFE
    Sampling rate                            : 48.0 KHz
    Bit depth                                : 16 bits
    Compression mode                         : Lossy
    Stream size                              : 119 MiB (7%)
    Language                                 : English
    Default                                  : No
    Forced                                   : No




    Скриншоты:
    скриншот   скриншот   скриншот   скриншот   скриншот  
    скриншот  

    Раздача ведётся путём добавления новых серий. Добавлена 13 серия (12.09.2015).Просьба перекачать торрент файл.

    pb.wtf



  • Скачать За пределами через торрент http://i6.imageban.ru/out/2015/07/03/2e45d9c4aae746d3d5c64a4b9a101c7b.jpg Скачать фильм За пределами через торрент бесплантно в хорошем качестве Описание: Молли Уоттс - женщина редкой и необычной неженской профессии, она космонавт. После космической экспедиции, длиною в год, Молли ... 8.9 10 13
    Info! Золотая раздача, скачанное не засчитывается.
    Торрент: Зарегистрирован [2015-09-12 02:02] · скачан: 18 раз
    Статус: √ проверено
    Размер: 21.91 GB
    Как cкачать? Как скачать За пределами через торрент | qTorrent

    % Раздел Тема Автор DL S | L
    Зарубежные сериалы [ 6.82 GB ] За пределами / Род человеческий / Выжившая / Extant / Сезон: 2 / Серии 1-13 из 13 [2015 WEB-DLRip] MVO [BaibaKo] GEKADOL Скачать
    1 | 0
    Зарубежные сериалы [ 18.22 GB ] За пределами / Род человеческий / Выжившая / Extant / Сезон: 2 / Серии 1-13 из 13 [2015 WEB-DL 720p] MVO [BaibaKo] GEKADOL Скачать
    1 | 0


    Последний раз редактировалось: GEKADOL (2015-09-12 02:02), всего редактировалось 15 раз(а)

    28-11-2019 20:33  

    Отключить всю рекламу на сайте

    04-07-2015 11:04 За пределами Скачать торрент  

    pb.wtf



    17-07-2015 12:45 За пределами Скачать торрент  

    dark messian писал(а):


    pb.wtf



    16-08-2015 04:52 За пределами Скачать торрент  

    Субтитры (((( Хочу русские субтитры вместе качество 1080 ((( pb.wtf



      Дорогой пользователь! Огромная просьба, поблагодарите релизера, оцените раздачу и оставьте свои комментарий, если Вы скачали За пределами через торрент бесплатно! Внесите свою лепту в развитие PiratBit!
      Комментировать посты могут только пользователи прошедшие не сложную регистрацию
      Показать сообщения:    

      За пределами через торрент
      Скачать бесплатно За пределами
      За пределами скачать торрент
      За пределами смотреть онлайн
      Cкачать фильм За пределами бесплатно
      За пределами скачать торрент в хорошем качестве
      За пределами смотреть онлайн бесплатно в хорошем качестве


      Вы не можете начинать темы
      Вы не можете отвечать на сообщения
      Вы не можете редактировать свои сообщения
      Вы не можете удалять свои сообщения
      Вы не можете голосовать в опросах
      Вы не можете прикреплять файлы к сообщениям
      Вы можете скачивать файлы