Ссылка на приватное зеркало нашего сайта всего за 1$. Внимание количество ограничено!!!

2 сезон

iTunes

1 сезон

1

2 сезон

2 сезон

iTunes

1 сезон

RePack

30

Новинка

ВАЖНО

ИГРА 18+

pack

RePack

MK11
pack

Забери бонус

RePack

jed

!!Акция!!

Alien_Rage

RePack

fifa19

RePack

Assassins Creed: Odyssey

RePack

NEED FOR SPEED™ PAYBACK

4 сезон

9 сезон

Бесстыжие 9 сезон

Все сериалы

все сериалы на PB.wtf

RePack

FAR CRY 5
  

Оболтусы / Homies (Йон Картхаус ) [2015, комедия, DVDRip, Любительский (двухголосый)(Lord32x, IREN) pb.wtf

Оболтусы через торрент pb.wtf

Размер: 1.46 GB | Добавлен: 5 лет 4 мес. назад | Торрент скачан:179 раз
Скачать  

03-07-2015 03:47 Оболтусы Скачать торрент  


Оболтусы / Homies


ИНФОРМАЦИЯ:
Год выпуска: 2015
Страна: Нидерланды
Жанр: комедия
Продолжительность: 01:36:36
Перевод: Любительский (двухголосый)(Lord32x, IREN)
Режиссер: Йон Картхаус

В Ролях:


Каролин Спор (Mandy), Виктория Кобленко (Ivana), Роберт де Хуг (Timo), Янник ван де Вельде (Joost), Дженнифер Хоффман (Incasso-agente), Геза Вайз (Fons), Кики ван Дёрсен (Saartje), Мануэль Брукман (Sebas), Чарли Дагелет (Sophie), Гийс Нейбр (Felix), Санне Фогель (Zus Timo), Сес Гел (Barman)

Описание:
Четверо взрослых, но упорно не желающих взрослеть друзей, живут вместе в одной квартире и придумывают разные безумные планы, как бы быстрее заработать много денег. Однажды они переходят дорогу русской мафии и оказываются должны бандитам миллион евро. Если они не найдут деньги за 7 дней, их разрежут на кусочки и скормят акулам в местном океанариуме. Это будет самая безумная неделя в их жизни.

  • Мировая премьера:22 января 2015

    ТЕХ.ДАННЫЕ:
    Качество: DVDRip
    Формат: AVI
    Видео кодек: XviD
    Аудио кодек: AC3
    Видео: XviD, 720x304 (2.35:1), 1627 kbps, 25 fps, 0,297 bpp
    Аудио: AC3 / 5.1 / 48 kHz / 448 kbps / 16 bit



    Код:

    General
    Complete name                            : D:\Торенты\Homies.2015.DVDRip.1500MB.avi
    Format                                   : AVI
    Format/Info                              : Audio Video Interleave
    File size                                : 1.46 GiB
    Duration                                 : 1h 36mn
    Overall bit rate                         : 2 171 Kbps
    Writing application                      : VirtualDubMod 1.5.10.3 | www.virtualdub-fr.org || (build 2550/release)
    Writing library                          : VirtualDubMod build 2550/release

    Video
    ID                                       : 0
    Format                                   : MPEG-4 Visual
    Format profile                           : Advanced Simple@L5
    Format settings, BVOP                    : 1
    Format settings, QPel                    : No
    Format settings, GMC                     : No warppoints
    Format settings, Matrix                  : Default (H.263)
    Codec ID                                 : XVID
    Codec ID/Hint                            : XviD
    Duration                                 : 1h 36mn
    Bit rate                                 : 1 628 Kbps
    Width                                    : 720 pixels
    Height                                   : 304 pixels
    Display aspect ratio                     : 2.35:1
    Frame rate                               : 25.000 fps
    Color space                              : YUV
    Chroma subsampling                       : 4:2:0
    Bit depth                                : 8 bits
    Scan type                                : Progressive
    Compression mode                         : Lossy
    Bits/(Pixel*Frame)                       : 0.297
    Stream size                              : 1.10 GiB (75%)
    Writing library                          : XviD 1.2.1 (UTC 2008-12-04)

    Audio
    ID                                       : 1
    Format                                   : AC-3
    Format/Info                              : Audio Coding 3
    Mode extension                           : CM (complete main)
    Codec ID                                 : 2000
    Duration                                 : 1h 36mn
    Bit rate mode                            : Constant
    Bit rate                                 : 448 Kbps
    Channel(s)                               : 6 channels
    Channel positions                        : Front: L C R, Side: L R, LFE
    Sampling rate                            : 48.0 KHz
    Bit depth                                : 16 bits
    Compression mode                         : Lossy
    Stream size                              : 310 MiB (21%)
    Alignment                                : Split accross interleaves

    Скриншоты:


    © Оформление by Ворон
    pb.wtf



  • Скачать Оболтусы через торрент http://pic.kartinco.top/images/6/ordi9.jpg Скачать фильм Оболтусы через торрент бесплантно в хорошем качестве Описание: Четверо взрослых, но упорно не желающих взрослеть друзей, живут вместе в одной квартире и придумывают разные безумные планы, как ... 10 10 7
    Торрент: Зарегистрирован [2015-07-03 03:47] · скачан: 179 раз
    Статус: T временная
    Размер: 1.46 GB
    Как cкачать? Как скачать Оболтусы через торрент | qTorrent

    28-11-2019 20:33  

    Отключить всю рекламу на сайте

    06-07-2015 20:52 Оболтусы Скачать торрент  

    Мдя.....хрень ппцpb.wtf



      Дорогой пользователь! Огромная просьба, поблагодарите релизера, оцените раздачу и оставьте свои комментарий, если Вы скачали Оболтусы через торрент бесплатно! Внесите свою лепту в развитие PiratBit!
      Комментировать посты могут только пользователи прошедшие не сложную регистрацию
      Показать сообщения:    

      Оболтусы через торрент
      Скачать бесплатно Оболтусы
      Оболтусы скачать торрент
      Оболтусы смотреть онлайн
      Cкачать фильм Оболтусы бесплатно
      Оболтусы скачать торрент в хорошем качестве
      Оболтусы смотреть онлайн бесплатно в хорошем качестве


      Вы не можете начинать темы
      Вы не можете отвечать на сообщения
      Вы не можете редактировать свои сообщения
      Вы не можете удалять свои сообщения
      Вы не можете голосовать в опросах
      Вы не можете прикреплять файлы к сообщениям
      Вы можете скачивать файлы