Доктор Стрэндж

Лицензия

Добыча

MVO

Дом дракона

1 сезон

Тор

Лицензия

Мэверик

Лицензия

Там, где раки поют

MVO

Властелин колец

1 сезон

Ultimate

pack

Рекомендуем

30

Repack

ВАЖНО

ВАЖНО

Ghostwire

RePack

jed

RePack

nioh2

RePack

RDR2

RePack

NEED FOR SPEED™ PAYBACK

RePack

скачать торрент

Кинопоиск HD

Острые козырьки 6 сезон

6 сезон

FAR CRY 6

RePack

скачать торрент

Лицензия

скачать торрент

MVO

1

1 сезон

скачать торрент

1 сезон

скачать торрент

Лицензия

  

Наруто: Последний фильм / The Last: Naruto the Movie (Цунэо Кобаяси ) [2014, аниме, мультфильм, боевик, WEB-DL 1080p, Дубляж] iTunes

Наруто: Последний фильм через торрент pb.wtf

Размер: 4.18 GB | Добавлен: 7 лет 2 мес. назад | Торрент скачан:278 раз
Смотреть онлайн Наруто: Последний фильм | Скачать   

03-07-2015 04:11 Наруто: Последний фильм Скачать торрент  


Наруто: Последний фильм / The Last: Naruto the Movie


ИНФОРМАЦИЯ:
Год выпуска: 2014
Страна: Япония
Жанр: аниме, мультфильм, боевик, комедия, приключения
Продолжительность: 01:51:54
Перевод: Дубляж - [Лицензия / iTunes]
Режиссер: Цунэо Кобаяси

В Ролях:


Дзюнко Такэути (Naruto Uzumaki, озвучка), Нана Мидзуки (Hinata Hyuuga, озвучка), Дзюн Фукуяма (Toneri Ôtsutsuki, озвучка), Тиэ Накамура (Sakura Haruno, озвучка), Сётаро Морикубо (Shikamaru Nara, озвучка), Сатоси Хино (Sai, озвучка), Акира Исида (Gaara, The Fifth Kazekage, озвучка), Хидеаки Тезука (A, The Fourth Raikage, озвучка), Юрика Хино (Mei Teriumî, The Fifth Mizukage, озвучка), Томоми Нисимура (Ônoki, The Third Tsuchikage, озвучка), Хисао Егава (Killer B, озвучка), Масако Кацуки (Tsunade, озвучка)

Описание:
Маленькая Ханаби похищена инопланетным злодеем, который вдобавок хочет уничтожить Землю. Наруто просто обязан спасти младшую сестру Хинаты - девушки, в которую он влюблён. Но сможет ли легендарный ниндзя победить самого мощного врага, если перед битвой он потеряет свои суперспособности?

  • Мировая премьера:6 декабря 2014

    ТЕХ.ДАННЫЕ:
    Качество: WEB-DL 1080p
    Формат: MKV
    Видео кодек: AVC
    Аудио кодек: AC3
    Видео: AVC, 1920x1040 (16:9), 4860 kbps, 24 fps, 0,101 bpp
    Аудио: русский / AC3 / 5.1 / 48 kHz / 384 kbps / 16 bit ||
    Навигация по главам: есть



    Код:

    General
    Unique ID                                : 228162264008673636527353213618493092796 (0xABA67421F874474093021016517873BC)
    Complete name                            : D:\Торенты\Наруто Последний фильм.mkv
    Format                                   : Matroska
    Format version                           : Version 4 / Version 2
    File size                                : 4.18 GiB
    Duration                                 : 1h 51mn
    Overall bit rate                         : 5 351 Kbps
    Movie name                               : Stretch
    Encoded date                             : UTC 2015-07-01 18:23:41
    Writing application                      : mkvmerge v6.9.1 ('Blue Panther') 64bit built on Apr 18 2014 18:23:38
    Writing library                          : libebml v1.3.0 + libmatroska v1.4.1

    Video
    ID                                       : 1
    Format                                   : AVC
    Format/Info                              : Advanced Video Codec
    Format profile                           : [email protected]
    Format settings, CABAC                   : Yes
    Format settings, ReFrames                : 4 frames
    Codec ID                                 : V_MPEG4/ISO/AVC
    Duration                                 : 1h 51mn
    Bit rate                                 : 4 861 Kbps
    Width                                    : 1 920 pixels
    Height                                   : 1 040 pixels
    Display aspect ratio                     : 16:9
    Frame rate                               : 24.000 fps
    Color space                              : YUV
    Chroma subsampling                       : 4:2:0
    Bit depth                                : 8 bits
    Scan type                                : Progressive
    Bits/(Pixel*Frame)                       : 0.101
    Stream size                              : 3.80 GiB (91%)
    Language                                 : English
    Default                                  : Yes
    Forced                                   : No
    Color primaries                          : BT.709-5, BT.1361, IEC 61966-2-4, SMPTE RP177
    Transfer characteristics                 : BT.709-5, BT.1361
    Matrix coefficients                      : BT.709-5, BT.1361, IEC 61966-2-4 709, SMPTE RP177

    Audio
    ID                                       : 2
    Format                                   : AC-3
    Format/Info                              : Audio Coding 3
    Mode extension                           : CM (complete main)
    Codec ID                                 : A_AC3
    Duration                                 : 1h 51mn
    Bit rate mode                            : Constant
    Bit rate                                 : 384 Kbps
    Channel(s)                               : 6 channels
    Channel positions                        : Front: L C R, Side: L R, LFE
    Sampling rate                            : 48.0 KHz
    Bit depth                                : 16 bits
    Compression mode                         : Lossy
    Stream size                              : 307 MiB (7%)
    Language                                 : Russian
    Default                                  : Yes
    Forced                                   : No

    Menu
    00:00:00.000                             : en:Глава 1
    00:05:52.000                             : en:Глава 2
    00:09:31.000                             : en:Глава 3
    00:15:58.000                             : en:Глава 4
    00:22:01.000                             : en:Глава 5
    00:25:08.000                             : en:Глава 6
    00:30:31.000                             : en:Глава 7
    00:36:38.000                             : en:Глава 8
    00:41:52.000                             : en:Глава 9
    00:46:26.000                             : en:Глава 10
    00:53:48.000                             : en:Глава 11
    00:59:59.000                             : en:Глава 12
    01:05:17.000                             : en:Глава 13
    01:10:35.000                             : en:Глава 14
    01:14:33.000                             : en:Глава 15
    01:21:16.000                             : en:Глава 16
    01:25:50.000                             : en:Глава 17
    01:29:53.000                             : en:Глава 18
    01:34:06.000                             : en:Глава 19
    01:39:23.000                             : en:Глава 20

    Скриншоты:


    © Оформление by Ворон



  • Скачать Наруто: Последний фильм через торрент https://pic1.kartinco.top/images/61/ordi9.jpg Скачать, смотреть онлайн Наруто: Последний фильм бесплантно в хорошем качестве Описание: Маленькая Ханаби похищена инопланетным злодеем, который вдобавок хочет уничтожить Землю. Наруто просто обязан спасти младшую ... 9.7 10 10
    Info! Золотая раздача, скачанное не засчитывается.
    Торрент: Зарегистрирован [2015-07-03 04:11] · скачан: 278 раз
    Статус: √ проверено
    Размер: 4.18 GB
    Как cкачать? Как скачать Наруто: Последний фильм через торрент | UTorrent

    % Раздел Тема Автор DL S | L
    Аниме [DVDrip, WEB-DLRip, HDrip] [ 1.46 GB ] Наруто: Последний фильм / The Last: Naruto the Movie | iTunes | DLRip, Дубляж Ворон Скачать
    1 | 0

    28-11-2019 20:33  

    Отключить вcю реклaмy на сайте

    03-07-2015 09:44 Наруто: Последний фильм Скачать торрент  

    Загрузил 97,7% и все дальше нет раздачи. Раздайте!!!
    Фух докачал!!!



      Дорогой пользователь! Огромная просьба, поблагодарите релизера, оцените раздачу и оставьте свои комментарий, если Вы скачали Наруто: Последний фильм через торрент бесплатно!!
      Комментировать посты могут только пользователи прошедшие не сложную регистрацию
      Показать сообщения:    


      Наруто: Последний фильм через торрент
      Скачать бесплатно Наруто: Последний фильм
      Наруто: Последний фильм скачать торрент
      Наруто: Последний фильм смотреть онлайн
      Cкачать фильм Наруто: Последний фильм бесплатно
      Наруто: Последний фильм скачать торрент в хорошем качестве
      Наруто: Последний фильм смотреть онлайн бесплатно в хорошем качестве
      Вы не можете начинать темы
      Вы не можете отвечать на сообщения
      Вы не можете редактировать свои сообщения
      Вы не можете удалять свои сообщения
      Вы не можете голосовать в опросах
      Вы не можете прикреплять файлы к сообщениям
      Вы можете скачивать файлы