Всегда рабочее зеркало просто перед .vidak.icu напиши любое слово или цифру, Пример http://7zh.vidak.icu

>

7.4

iTunes

7.4

2 сезон

9.4

1 сезон

1

7.4

2 сезон

7.2

iTunes

6.0

MVO

13

6.1

iTunes

8.3

Пиратка

30

ULTIMATE

pack

9.9

Лицензия

ВАЖНО

ИГРА 18+

pack

7.3

RePack

MK11

7.7

RePack

jed

7.8

RePack

fifa19

8.5

RePack

RDR2

RePack

NEED FOR SPEED™ PAYBACK

1 сезон

9 сезон

Бесстыжие 9 сезон

Все сериалы

все сериалы на PB.wtf

RePack

FAR CRY 5

Anonymous, доброй ночи, мы катастрофически не успеваем собрать деньги на оплату серверов, помогите нам пожалуйста 5,10,15р., для нас важна любая помощь . В качестве благодарности мы отключим Вам всю рекламу на сайте (укажите свой ник в строку Ваше имя)!

×
  
Magnet ссылка

Медленный Запад / Slow West (Джон Маклин ) [2015, боевик, триллер, вестерн, BDRip 1080p, AVO+DVO+VO] pb.wtf

Медленный Запад через торрент pb.wtf

Размер: 7.87 GB | Добавлен: 6 лет 6 мес. назад | Торрент скачан:130 раз
Смотреть онлайн Медленный Запад | Скачать    Ребята, помогите собрать деньги на оплату серверов!!!

03-07-2015 04:46 Медленный Запад Скачать торрент  


Медленный Запад / Slow West
«Wanted dead or dead»

ИНФОРМАЦИЯ:
Год выпуска: 2015
Страна: Великобритания, Новая Зеландия
Жанр: боевик, триллер, вестерн
Продолжительность: 01:24:02
Перевод: Авторский (Михаил Чадов), любительский двухголосый, любительский одноголосый
Субтитры: русские,
Режиссер: Джон Маклин

В Ролях:


Коди Смит-МакФи (Jay Cavendish), Майкл Фассбендер (Silas Selleck), Бен Мендельсон (Payne), Aorere Paki (Young Native Boy), Хейден Фрост (Young Soldier 1), Карен Писториус (Rose Ross), Kieran Charnock (Young Soldier 2), Эдвин Райт (Victor the Hawk), Joseph Passi (Congolese Singer 1), Эндрю Робертт (Werner), Сэм Манзанза (Congolese Singer 2), Таванда Маниймо (Congolese Singer 3)

Описание:
Фильм рассказывает историю 17-летнего паренька по имени Джей Кавендиш, который путешествует по всей американской границе в поисках девушки, которую он любит. В опасном приключении его сопровождает таинственный путешественник Сайлас.

  • Мировая премьера:24 января 2015

    ТЕХ.ДАННЫЕ:
    Качество: BDRip 1080p
    Формат: MKV
    Видео кодек: AVC
    Аудио кодек: AC3, DTS
    Видео: AVC, 1792x1080 (1.659), 11011 kbps, 23,976 fps, 0,237 bpp
    Аудио №1: русский / AC3 / 2.0 / 48 kHz / 256 kbps / 16 bit || Авторский (Михаил Чадов)
    Аудио №2: русский / AC3 / 5.1 / 48 kHz / 384 kbps / 16 bit || любительский двухголосый
    Аудио №3: русский / AC3 / 2.0 / 48 kHz / 256 kbps / 16 bit || любительский одноголосый
    Аудио №4: английский / DTS / 5.1 / 48 kHz / 1510 kbps / 24 bit
    Навигация по главам: есть



    Код:

    General
    Unique ID                                : 173969823805945261354079200351591200927 (0x82E15E8B04E81901B95EDAE8E115F89F)
    Complete name                            : D:\Торенты\Slow.West.2015.x264.BDRip.1080p.NovaLan.mkv
    Format                                   : Matroska
    Format version                           : Version 4 / Version 2
    File size                                : 7.87 GiB
    Duration                                 : 1h 24mn
    Overall bit rate                         : 13.4 Mbps
    Movie name                               : Slow West 2015 - NovaLan
    Encoded date                             : UTC 2015-07-01 20:40:58
    Writing application                      : mkvmerge v8.1.0 ('Psychedelic Postcard') 64bit
    Writing library                          : libebml v1.3.1 + libmatroska v1.4.2

    Video
    ID                                       : 1
    Format                                   : AVC
    Format/Info                              : Advanced Video Codec
    Format profile                           : High@L4.1
    Format settings, CABAC                   : Yes
    Format settings, ReFrames                : 4 frames
    Codec ID                                 : V_MPEG4/ISO/AVC
    Duration                                 : 1h 24mn
    Bit rate                                 : 11.0 Mbps
    Width                                    : 1 792 pixels
    Height                                   : 1 080 pixels
    Display aspect ratio                     : 1.659
    Frame rate                               : 23.976 fps
    Color space                              : YUV
    Chroma subsampling                       : 4:2:0
    Bit depth                                : 8 bits
    Scan type                                : Progressive
    Bits/(Pixel*Frame)                       : 0.237
    Stream size                              : 6.30 GiB (80%)
    Title                                    : Sergei7721
    Writing library                          : x264 core 146 r2538 121396c
    Encoding settings                        : cabac=1 / ref=4 / deblock=1:-1:-1 / analyse=0x3:0x113 / me=umh / subme=11 / psy=1 / psy_rd=1.00:0.20 / mixed_ref=1 / me_range=24 / chroma_me=1 / trellis=2 / 8x8dct=1 / cqm=0 / deadzone=21,11 / fast_pskip=0 / chroma_qp_offset=-3 / threads=12 / lookahead_threads=1 / sliced_threads=0 / nr=0 / decimate=0 / interlaced=0 / bluray_compat=0 / constrained_intra=0 / bframes=6 / b_pyramid=2 / b_adapt=2 / b_bias=0 / direct=3 / weightb=1 / open_gop=0 / weightp=2 / keyint=240 / keyint_min=23 / scenecut=40 / intra_refresh=0 / rc_lookahead=40 / rc=2pass / mbtree=0 / bitrate=11011 / ratetol=1.0 / qcomp=0.60 / qpmin=0 / qpmax=69 / qpstep=4 / cplxblur=20.0 / qblur=0.5 / vbv_maxrate=50000 / vbv_bufsize=62500 / nal_hrd=none / filler=0 / ip_ratio=1.40 / pb_ratio=1.30 / aq=1:1.00
    Default                                  : Yes
    Forced                                   : No

    Audio #1
    ID                                       : 2
    Format                                   : AC-3
    Format/Info                              : Audio Coding 3
    Mode extension                           : CM (complete main)
    Codec ID                                 : A_AC3
    Duration                                 : 1h 24mn
    Bit rate mode                            : Constant
    Bit rate                                 : 256 Kbps
    Channel(s)                               : 2 channels
    Channel positions                        : Front: L R
    Sampling rate                            : 48.0 KHz
    Bit depth                                : 16 bits
    Compression mode                         : Lossy
    Stream size                              : 154 MiB (2%)
    Language                                 : Russian
    Default                                  : Yes
    Forced                                   : No

    Audio #2
    ID                                       : 3
    Format                                   : AC-3
    Format/Info                              : Audio Coding 3
    Mode extension                           : CM (complete main)
    Codec ID                                 : A_AC3
    Duration                                 : 1h 24mn
    Bit rate mode                            : Constant
    Bit rate                                 : 384 Kbps
    Channel(s)                               : 6 channels
    Channel positions                        : Front: L C R, Side: L R, LFE
    Sampling rate                            : 48.0 KHz
    Bit depth                                : 16 bits
    Compression mode                         : Lossy
    Stream size                              : 231 MiB (3%)
    Language                                 : Russian
    Default                                  : No
    Forced                                   : No

    Audio #3
    ID                                       : 4
    Format                                   : AC-3
    Format/Info                              : Audio Coding 3
    Mode extension                           : CM (complete main)
    Codec ID                                 : A_AC3
    Duration                                 : 1h 24mn
    Bit rate mode                            : Constant
    Bit rate                                 : 256 Kbps
    Channel(s)                               : 2 channels
    Channel positions                        : Front: L R
    Sampling rate                            : 48.0 KHz
    Bit depth                                : 16 bits
    Compression mode                         : Lossy
    Stream size                              : 154 MiB (2%)
    Language                                 : Russian
    Default                                  : No
    Forced                                   : No

    Audio #4
    ID                                       : 5
    Format                                   : DTS
    Format/Info                              : Digital Theater Systems
    Codec ID                                 : A_DTS
    Duration                                 : 1h 24mn
    Bit rate mode                            : Constant
    Bit rate                                 : 1 510 Kbps
    Channel(s)                               : 6 channels
    Channel positions                        : Front: L C R, Side: L R, LFE
    Sampling rate                            : 48.0 KHz
    Bit depth                                : 24 bits
    Compression mode                         : Lossy
    Stream size                              : 907 MiB (11%)
    Language                                 : English
    Default                                  : No
    Forced                                   : No

    Text
    ID                                       : 6
    Format                                   : UTF-8
    Codec ID                                 : S_TEXT/UTF8
    Codec ID/Info                            : UTF-8 Plain Text
    Language                                 : Russian
    Default                                  : No
    Forced                                   : No

    Menu
    00:00:00.000                             : en:00:00:00.000
    00:04:55.128                             : en:00:04:55.128
    00:10:24.165                             : en:00:10:24.165
    00:14:35.541                             : en:00:14:35.541
    00:19:08.397                             : en:00:19:08.397
    00:25:29.236                             : en:00:25:29.236
    00:29:17.756                             : en:00:29:17.756
    00:35:17.282                             : en:00:35:17.282
    00:39:36.291                             : en:00:39:36.291
    00:45:26.641                             : en:00:45:26.641
    00:51:45.436                             : en:00:51:45.436
    00:55:14.186                             : en:00:55:14.186
    01:01:43.909                             : en:01:01:43.909
    01:07:38.596                             : en:01:07:38.596
    01:10:55.960                             : en:01:10:55.960
    01:18:29.330                             : en:01:18:29.330

    Скриншоты:


    © Оформление by Ворон
    pb.wtf



  • Скачать Медленный Запад через торрент https://pic1.kartinco.top/images/61/ordi9.jpg Скачать, смотреть онлайн Медленный Запад бесплантно в хорошем качестве Описание: Фильм рассказывает историю 17-летнего паренька по имени Джей Кавендиш, который путешествует по всей американской границе в ... 7.8 10 4
    Торрент: Зарегистрирован [2015-07-03 04:46] · скачан: 130 раз
    Статус: √ проверено
    Размер: 7.87 GB
    Как cкачать? Как скачать Медленный Запад через торрент | UTorrent

    % Раздел Тема Автор DL S | L
    Фильмы 2015 [DVDrip, WEB-DLRip, HDrip] [ 1.46 GB ] Строго на запад / Медленный Запад / Slow West [2015 BDRip] DUB Twi7ter Скачать
    1 | 0
    Фильмы 2015 [DVDrip, WEB-DLRip, HDrip] [ 2.14 GB ] Медленный Запад / Строго на запад / Slow West [2015 BDRip-AVC] Dub potroks Скачать
    1 | 0
    Фильмы 2015 [DVDrip, WEB-DLRip, HDrip] [ 1.42 GB ] Медленный Запад / Строго на запад / Slow West [2015 BDRip-AVC] Dub potroks Скачать
    1 | 0
    Фильмы 2015 [DVDrip, WEB-DLRip, HDrip] [ 1.37 GB ] Медленный Запад / Slow West [2015 HDRip / Дублированное Ворон Скачать
    1 | 0
    Фильмы 2015 [DVDrip, WEB-DLRip, HDrip] [ 1.42 GB ] Строго на запад / Медленный Запад / Slow West [2015 BDRip] Dub Twi7ter Скачать
    1 | 0
    Фильмы [HD 720p, 1080p] (Хороший звук DUB, MVO) [ 8.27 GB ] Медленный Запад / Строго на запад / Slow West [2015 BDRip 1080p DUB ] Ворон Скачать
    1 | 0
    Фильмы (Blu-ray, BD-Remux, HDDVD) [ 18.6 GB ] Медленный Запад / Slow West [2015 BD Remux AVO+DVO+VO] Ворон Скачать
    1 | 0

    28-11-2019 20:33  

    Отключить всю рекламу на сайте

      Дорогой пользователь! Огромная просьба, поблагодарите релизера, оцените раздачу и оставьте свои комментарий, если Вы скачали Медленный Запад через торрент бесплатно!
      Комментировать посты могут только пользователи прошедшие не сложную регистрацию
      Показать сообщения:    

      Медленный Запад через торрент
      Скачать бесплатно Медленный Запад
      Медленный Запад скачать торрент
      Медленный Запад смотреть онлайн
      Cкачать фильм Медленный Запад бесплатно
      Медленный Запад скачать торрент в хорошем качестве
      Медленный Запад смотреть онлайн бесплатно в хорошем качестве


      Вы не можете начинать темы
      Вы не можете отвечать на сообщения
      Вы не можете редактировать свои сообщения
      Вы не можете удалять свои сообщения
      Вы не можете голосовать в опросах
      Вы не можете прикреплять файлы к сообщениям
      Вы можете скачивать файлы