Ссылка на приватное зеркало нашего сайта всего за 1$. Внимание количество ограничено!!!

2 сезон

iTunes

1 сезон

1

iTunes

iTunes

iTunes

1 сезон

RePack

30

ИГРА 18+

pack

ВАЖНО

!!Акция!!

Alien_RageХит недели

RePack

MK11
pack

Забери бонус

RePack

jed

!!Акция!!

Alien_Rage

RePack

fifa19

RePack

Assassins Creed: Odyssey

RePack

NEED FOR SPEED™ PAYBACK

4 сезон

9 сезон

Бесстыжие 9 сезон

Все сериалы

все сериалы на PB.wtf

RePack

FAR CRY 5
  

Стрингер / Nightcrawler (Дэн Гилрой / Dan Gilroy) [2014, США, триллер, криминал, BDRip 720p] MVO, 3xAVO pb.wtf

Стрингер через торрент pb.wtf

Размер: 7.96 GB | Добавлен: 5 лет 3 мес. назад | Торрент скачан:321 раз
Скачать  

03-07-2015 13:00 Стрингер Скачать торрент  

Стрингер / Nightcrawler
«Секреты Лос-Анджелеса»


Год выпуска: 2014
Страна: США
Жанр: триллер, криминал
Продолжительность: 01:58:05
Перевод: Профессиональный многоголосый, Авторский (одноголосый)
Субтитры: русские (A.Матвеев), английские (Full), английские (SDH), английские (SDH-COLORED)
Режиссер: Дэн Гилрой
В ролях: Джейк Джилленхол , Рене Руссо , Риз Ахмед , Билл Пэкстон , Майкл Пападжон , Марко Родригес , Джеймс Хуанг , Кент Шокнек , Пэт Харви , Шэрон Тэй , Рик Гарсиа , Леа Фредкин
Описание:
Луи Блум пытается найти работу. После того как он видит, как любительская съемочная группа снимает автомобильную аварию, он меняет ворованный велосипед на камеру и снимает последствия угона автомобиля, чтобы продать местной телевизионной компании. Директор новостей Нина покупает запись и убеждает его продолжить работу. Вскоре становится ясно, что ради по-настоящему стоящего материала Луи не остановится ни перед чем...


R - Лицам до 17 лет обязательно присутствие взрослого
Качество: BDRip 720p
Контейнер (Расширение): MKV
Видео кодек: AVC
Аудио кодек: AC3
Видео: 1280x534, 6449 Кбит/сек, 23,976 кадр/сек, 0,394 Бит/[Пиксели*Кадры]
Аудио №1: русский / AC3 / 5.1 / 48 kHz / 640 kbps / 16 bit |Профессиональный (многоголосый, закадровый) Омикрон|
Аудио №2: русский / AC3 / 5.1 / 48 kHz / 640 kbps / 16 bit |Авторский, Ю.Сербин|
Аудио №3: русский / AC3 / 5.1 / 48 kHz / 640 kbps / 16 bit |Авторский, А.Матвеев|
Аудио №4: русский / AC3 / 5.1 / 48 kHz / 640 kbps / 16 bit |Авторский, Д.Есарев|
Аудио №5: английский / AC3 / 5.1 / 48 kHz / 640 kbps / 16 bit
Навигация по главам(Чаптеры): есть
Видеоряд WiKiРелиз от: Сообщество:
  • Готовясь к своей роли, Джейк Джилленхол сбросил почти 15 кг.
  • Код:

    Format                                   : Matroska
    Format version                           : Version 2
    File size                                : 7.96 GiB
    Duration                                 : 1h 58mn
    Overall bit rate                         : 9 650 Kbps
    Movie name                               : Stringer.(2014).BDRip.720p.[denis100]
    Encoded date                             : UTC 2015-07-03 12:33:33
    Writing application                      : mkvmerge v5.8.0 ('No Sleep / Pillow') built on Sep  2 2012 15:37:04
    Writing library                          : libebml v1.2.3 + libmatroska v1.3.0

    Video
    ID                                       : 1
    Format                                   : AVC
    Format/Info                              : Advanced Video Codec
    Format profile                           : High@L4.1
    Format settings, CABAC                   : Yes
    Format settings, ReFrames                : 12 frames
    Codec ID                                 : V_MPEG4/ISO/AVC
    Duration                                 : 1h 58mn
    Bit rate                                 : 6 449 Kbps
    Width                                    : 1 280 pixels
    Height                                   : 534 pixels
    Display aspect ratio                     : 2.40:1
    Frame rate                               : 23.976 fps
    Color space                              : YUV
    Chroma subsampling                       : 4:2:0
    Bit depth                                : 8 bits
    Scan type                                : Progressive
    Bits/(Pixel*Frame)                       : 0.394
    Stream size                              : 5.16 GiB (65%)
    Title                                    : Stringer.(2014).BDRip.720p.[denis100]
    Writing library                          : x264 core 129 r2245 bc13772
    Encoding settings                        : cabac=1 / ref=12 / deblock=1:-3:-3 / analyse=0x3:0x133 / me=umh / subme=11 / psy=1 / psy_rd=1.10:0.15 / mixed_ref=1 / me_range=32 / chroma_me=1 / trellis=2 / 8x8dct=1 / cqm=0 / deadzone=21,11 / fast_pskip=0 / chroma_qp_offset=-3 / threads=12 / lookahead_threads=2 / sliced_threads=0 / nr=0 / decimate=1 / interlaced=0 / bluray_compat=0 / constrained_intra=0 / bframes=8 / b_pyramid=2 / b_adapt=2 / b_bias=0 / direct=3 / weightb=1 / open_gop=0 / weightp=2 / keyint=250 / keyint_min=23 / scenecut=40 / intra_refresh=0 / rc_lookahead=60 / rc=2pass / mbtree=1 / bitrate=6449 / ratetol=1.0 / qcomp=0.60 / qpmin=0 / qpmax=69 / qpstep=4 / cplxblur=20.0 / qblur=0.5 / ip_ratio=1.40 / aq=1:0.80
    Language                                 : English
    Default                                  : Yes
    Forced                                   : No

    Audio #1
    ID                                       : 2
    Format                                   : AC-3
    Format/Info                              : Audio Coding 3
    Mode extension                           : CM (complete main)
    Codec ID                                 : A_AC3
    Duration                                 : 1h 58mn
    Bit rate mode                            : Constant
    Bit rate                                 : 640 Kbps
    Channel(s)                               : 6 channels
    Channel positions                        : Front: L C R, Side: L R, LFE
    Sampling rate                            : 48.0 KHz
    Bit depth                                : 16 bits
    Compression mode                         : Lossy
    Stream size                              : 541 MiB (7%)
    Title                                    : Профессиональный (многоголосый, закадровый) Омикрон
    Language                                 : Russian
    Default                                  : Yes
    Forced                                   : No

    Audio #2
    ID                                       : 3
    Format                                   : AC-3
    Format/Info                              : Audio Coding 3
    Mode extension                           : CM (complete main)
    Codec ID                                 : A_AC3
    Duration                                 : 1h 58mn
    Bit rate mode                            : Constant
    Bit rate                                 : 640 Kbps
    Channel(s)                               : 6 channels
    Channel positions                        : Front: L C R, Side: L R, LFE
    Sampling rate                            : 48.0 KHz
    Bit depth                                : 16 bits
    Compression mode                         : Lossy
    Stream size                              : 541 MiB (7%)
    Title                                    : Авторский, Ю.Сербин
    Language                                 : Russian
    Default                                  : No
    Forced                                   : No

    Audio #3
    ID                                       : 4
    Format                                   : AC-3
    Format/Info                              : Audio Coding 3
    Mode extension                           : CM (complete main)
    Codec ID                                 : A_AC3
    Duration                                 : 1h 58mn
    Bit rate mode                            : Constant
    Bit rate                                 : 640 Kbps
    Channel(s)                               : 6 channels
    Channel positions                        : Front: L C R, Side: L R, LFE
    Sampling rate                            : 48.0 KHz
    Bit depth                                : 16 bits
    Compression mode                         : Lossy
    Stream size                              : 541 MiB (7%)
    Title                                    : Авторский, А.Матвеев
    Language                                 : Russian
    Default                                  : No
    Forced                                   : No

    Audio #4
    ID                                       : 5
    Format                                   : AC-3
    Format/Info                              : Audio Coding 3
    Mode extension                           : CM (complete main)
    Codec ID                                 : A_AC3
    Duration                                 : 1h 58mn
    Bit rate mode                            : Constant
    Bit rate                                 : 640 Kbps
    Channel(s)                               : 6 channels
    Channel positions                        : Front: L C R, Side: L R, LFE
    Sampling rate                            : 48.0 KHz
    Bit depth                                : 16 bits
    Compression mode                         : Lossy
    Stream size                              : 541 MiB (7%)
    Title                                    : Авторский, Д.Есарев
    Language                                 : Russian
    Default                                  : No
    Forced                                   : No

    Audio #5
    ID                                       : 6
    Format                                   : AC-3
    Format/Info                              : Audio Coding 3
    Mode extension                           : CM (complete main)
    Codec ID                                 : A_AC3
    Duration                                 : 1h 58mn
    Bit rate mode                            : Constant
    Bit rate                                 : 640 Kbps
    Channel(s)                               : 6 channels
    Channel positions                        : Front: L C R, Side: L R, LFE
    Sampling rate                            : 48.0 KHz
    Bit depth                                : 16 bits
    Compression mode                         : Lossy
    Stream size                              : 541 MiB (7%)
    Language                                 : English
    Default                                  : No
    Forced                                   : No

    Text #1
    ID                                       : 7
    Format                                   : UTF-8
    Codec ID                                 : S_TEXT/UTF8
    Codec ID/Info                            : UTF-8 Plain Text
    Title                                    : A.Матвеев
    Language                                 : Russian
    Default                                  : No
    Forced                                   : No

    Text #2
    ID                                       : 8
    Format                                   : UTF-8
    Codec ID                                 : S_TEXT/UTF8
    Codec ID/Info                            : UTF-8 Plain Text
    Title                                    : Full
    Language                                 : English
    Default                                  : No
    Forced                                   : No

    Text #3
    ID                                       : 9
    Format                                   : UTF-8
    Codec ID                                 : S_TEXT/UTF8
    Codec ID/Info                            : UTF-8 Plain Text
    Title                                    : SDH
    Language                                 : English
    Default                                  : No
    Forced                                   : No

    Text #4
    ID                                       : 10
    Format                                   : UTF-8
    Codec ID                                 : S_TEXT/UTF8
    Codec ID/Info                            : UTF-8 Plain Text
    Title                                    : SDH-COLORED
    Language                                 : English
    Default                                  : No
    Forced                                   : No

    Menu
    00:00:00.000                             : en:Chapter 1
    00:06:24.509                             : en:Chapter 2
    00:11:22.848                             : en:Chapter 3
    00:16:16.350                             : en:Chapter 4
    00:23:49.803                             : en:Chapter 5
    00:30:47.053                             : en:Chapter 6
    00:36:29.520                             : en:Chapter 7
    00:42:44.478                             : en:Chapter 8
    00:46:55.604                             : en:Chapter 9
    00:53:16.735                             : en:Chapter 10
    01:00:54.150                             : en:Chapter 11
    01:07:27.251                             : en:Chapter 12
    01:13:05.798                             : en:Chapter 13
    01:18:23.907                             : en:Chapter 14
    01:25:06.059                             : en:Chapter 15
    01:29:24.150                             : en:Chapter 16
    01:36:17.980                             : en:Chapter 17
    01:44:54.830                             : en:Chapter 18
    01:48:37.552                             : en:Chapter 19
    01:53:45.944                             : en:Chapter 20

    x264 [info]: frame I:1302 Avg QP:13.72 size:159530
    x264 [info]: frame P:34041 Avg QP:16.13 size: 56972
    x264 [info]: frame B:134534 Avg QP:18.11 size: 26482
    pb.wtf



    Скачать Стрингер через торрент http://i72.fastpic.ru/big/2015/0703/f7/41d4cf916fb6874358e31ebf54b5a1f7.png Скачать фильм Стрингер через торрент бесплантно в хорошем качестве Описание:Луи Блум пытается найти работу. После того как он видит, как любительская съемочная группа снимает автомобильную аварию, он меняет ... 9.7 10 10
    Info! Золотая раздача, скачанное не засчитывается.
    Торрент: Зарегистрирован [2015-07-03 13:00] · скачан: 321 раз
    Статус: √ проверено
    Размер: 7.96 GB
    Как cкачать? Как скачать Стрингер через торрент | qTorrent

    28-11-2019 20:33  

    Отключить всю рекламу на сайте

    03-07-2015 22:47 Стрингер Скачать торрент  

    Смотрел не отрываясь, хоть мне сюжет не понравился - фильм одноразовый проходняк, но снят прилично!pb.wtf



      Дорогой пользователь! Огромная просьба, поблагодарите релизера, оцените раздачу и оставьте свои комментарий, если Вы скачали Стрингер через торрент бесплатно! Внесите свою лепту в развитие PiratBit!
      Комментировать посты могут только пользователи прошедшие не сложную регистрацию
      Показать сообщения:    

      Стрингер через торрент
      Скачать бесплатно Стрингер
      Стрингер скачать торрент
      Стрингер смотреть онлайн
      Cкачать фильм Стрингер бесплатно
      Стрингер скачать торрент в хорошем качестве
      Стрингер смотреть онлайн бесплатно в хорошем качестве


      Вы не можете начинать темы
      Вы не можете отвечать на сообщения
      Вы не можете редактировать свои сообщения
      Вы не можете удалять свои сообщения
      Вы не можете голосовать в опросах
      Вы не можете прикреплять файлы к сообщениям
      Вы можете скачивать файлы