Ссылка на приватное зеркало нашего сайта всего за 1$. Внимание количество ограничено!!!

2 сезон

iTunes

1 сезон

1

iTunes

iTunes

iTunes

1 сезон

RePack

30

ИГРА 18+

pack

ВАЖНО

!!Акция!!

Alien_RageХит недели

RePack

MK11
pack

Забери бонус

RePack

jed

!!Акция!!

Alien_Rage

RePack

fifa19

RePack

Assassins Creed: Odyssey

RePack

NEED FOR SPEED™ PAYBACK

4 сезон

9 сезон

Бесстыжие 9 сезон

Все сериалы

все сериалы на PB.wtf

RePack

FAR CRY 5
  

Ганмен / The Gunman (Пьер Морель / Pierre Morel) [2015, Боевик, триллер, драма, криминал, детектив, BDRip 720p от potroks] DUB, AVO pb.wtf

Ганмен через торрент pb.wtf

Размер: 5.84 GB | Добавлен: 4 года 11 мес. назад | Торрент скачан:282 раза
Скачать  

03-07-2015 17:50 Ганмен Скачать торрент  

Ганмен / The Gunman
«На прицеле. На грани. На взводе»
Год выпуска: 2015
Страна: США, Испания, Великобритания, Франция / Silver Pictures, Studio Canal...
Жанр: боевик, триллер, драма, криминал, детектив
Продолжительность: 01:55:40
Перевод#1: Дубляж [iTunes]
Перевод#2: Авторский (одноголосый) [Дмитрий Есарев / ценз, без ценза]
Перевод#3: Авторский (одноголосый) [Михаил Яроцкий / без ценза]
Субтитры: английские (Full), английские (SDH), английские (SDH-Colored)
Навигация по главам: есть
Режиссер: Пьер Морель / Pierre Morel
В ролях:

Шон Пенн (Terrier), Хавьер Бардем (Felix), Рэй Уинстон (Stanley), Жазмин Тринка (Annie), Идрис Эльба (Barnes), Марк Райлэнс (Cox), Петер Францен (Reiniger), Билли Биллинхэм (Reed), Дэниэл Адегбойега (Bryson), Адэ Ойефесо (Eugene), Алехандро Таванте (Bullfighter), Florian Barisey (Village Boy)
Описание: Джим Террье - ганмен, международный наемник высочайшего класса. Но когда в Компании начинают подчищать хвосты, Джим сам становится мишенью. Чтобы выжить, Джим угрожает обнародовать имеющийся у него компромат и обращается к бывшему напарнику Феликсу. Однако у Феликса есть свои резоны желать, чтобы Джим Террье исчез из его жизни. Это Энни - женщина, которую они оба любят. За Джимом начинается смертельная охота по всей Европе, и у него не остается другого выбора, кроме как дать бой - один против всех.

Качество: BDRip 720p
Формат: MKV
Видео кодек: AVC
Аудио кодек: AC3
Видео: 1280x534 (2.40:1), 4095 kbps, 23,976 fps, 0,250 bit/pixel
Аудио №1: AC3 / 5.1 / 48 kHz / 384 kbps / 16 bit | DUB - iTunes
Аудио №2: AC3 / 5.1 / 48 kHz / 640 kbps / 16 bit | AVO - Д.Есарев
Аудио №3: AC3 / 5.1 / 48 kHz / 640 kbps / 16 bit | AVO - Д.Есарев +18
Аудио №4: AC3 / 5.1 / 48 kHz / 640 kbps / 16 bit | AVO - М.Яроцкий +18
Аудио №5: AC3 / 2.0 / 48 kHz / 192 kbps / 16 bit | UKR - DUB - ААА-sound
Аудио №6: AC3 / 5.1 / 48 kHz / 640 kbps / 16 bit | ENG

Релиз группы:
Автор рипа: potroks

Код:

General
Unique ID                   : 199305730834140022613785536779373641701 (0x95F0E333DD68CC9FA73F976F44C5FFE5)
Complete name               : Ganmen.2015.DUB.AVO.UKR.ENG.BDRip.720p.-HELLYWOOD.mkv
Format                      : Matroska
Format version              : Version 4 / Version 2
File size                   : 5.84 GiB
Duration                    : 1h 55mn
Overall bit rate            : 7 234 Kbps
Movie name                  : The Gunman (2015) - HELLYWOOD
Encoded date                : UTC 2010-02-22 21:41:31
Writing application         : mkvmerge v5.8.0 ('No Sleep / Pillow') built on Sep 30 2012 10:57:14
Writing library             : libebml v1.3.0 + libmatroska v1.4.0

Video
ID                          : 1
Format                      : AVC
Format/Info                 : Advanced Video Codec
Format profile              : High@L4.1
Format settings, CABAC      : Yes
Format settings, ReFrames   : 9 frames
Codec ID                    : V_MPEG4/ISO/AVC
Duration                    : 1h 55mn
Bit rate                    : 4 095 Kbps
Width                       : 1 280 pixels
Height                      : 534 pixels
Display aspect ratio        : 2.40:1
Frame rate mode             : Constant
Frame rate                  : 23.976 fps
Color space                 : YUV
Chroma subsampling          : 4:2:0
Bit depth                   : 8 bits
Scan type                   : Progressive
Bits/(Pixel*Frame)          : 0.250
Stream size                 : 3.19 GiB (55%)
Title                       : potroks
Writing library             : x264 core 146 r2538 121396c
Encoding settings           : cabac=1 / ref=9 / deblock=1:-3:-3 / analyse=0x3:0x113 / me=umh / subme=11 / psy=1 / psy_rd=1.00:0.07 / mixed_ref=1 / me_range=48 / chroma_me=1 / trellis=2 / 8x8dct=1 / cqm=0 / deadzone=21,11 / fast_pskip=0 / chroma_qp_offset=-3 / threads=9 / lookahead_threads=2 / sliced_threads=0 / nr=0 / decimate=0 / interlaced=0 / bluray_compat=0 / constrained_intra=0 / bframes=11 / b_pyramid=2 / b_adapt=2 / b_bias=0 / direct=3 / weightb=1 / open_gop=0 / weightp=2 / keyint=250 / keyint_min=23 / scenecut=40 / intra_refresh=0 / rc_lookahead=60 / rc=2pass / mbtree=0 / bitrate=4095 / ratetol=1.0 / qcomp=0.70 / qpmin=0 / qpmax=69 / qpstep=4 / cplxblur=20.0 / qblur=0.5 / vbv_maxrate=14000 / vbv_bufsize=14000 / nal_hrd=none / filler=0 / ip_ratio=1.35 / pb_ratio=1.30 / aq=1:0.80
Language                    : English
Default                     : Yes
Forced                      : No

Audio #1
ID                          : 2
Format                      : AC-3
Format/Info                 : Audio Coding 3
Mode extension              : CM (complete main)
Format settings, Endianness : Big
Codec ID                    : A_AC3
Duration                    : 1h 55mn
Bit rate mode               : Constant
Bit rate                    : 384 Kbps
Channel(s)                  : 6 channels
Channel positions           : Front: L C R, Side: L R, LFE
Sampling rate               : 48.0 KHz
Compression mode            : Lossy
Stream size                 : 318 MiB (5%)
Title                       : Dub | DD 5.1 @ 384 kbps - iTunes
Language                    : Russian
Default                     : Yes
Forced                      : No

Audio #2
ID                          : 3
Format                      : AC-3
Format/Info                 : Audio Coding 3
Mode extension              : CM (complete main)
Format settings, Endianness : Big
Codec ID                    : A_AC3
Duration                    : 1h 55mn
Bit rate mode               : Constant
Bit rate                    : 640 Kbps
Channel(s)                  : 6 channels
Channel positions           : Front: L C R, Side: L R, LFE
Sampling rate               : 48.0 KHz
Compression mode            : Lossy
Stream size                 : 529 MiB (9%)
Title                       : AVO | DD 5.1 @ 640 kbps - D.Yesarev
Language                    : Russian
Default                     : No
Forced                      : No

Audio #3
ID                          : 4
Format                      : AC-3
Format/Info                 : Audio Coding 3
Mode extension              : CM (complete main)
Format settings, Endianness : Big
Codec ID                    : A_AC3
Duration                    : 1h 55mn
Bit rate mode               : Constant
Bit rate                    : 640 Kbps
Channel(s)                  : 6 channels
Channel positions           : Front: L C R, Side: L R, LFE
Sampling rate               : 48.0 KHz
Compression mode            : Lossy
Stream size                 : 529 MiB (9%)
Title                       : AVO | DD 5.1 @ 640 kbps - D.Yesarev (+18)
Language                    : Russian
Default                     : No
Forced                      : No

Audio #4
ID                          : 5
Format                      : AC-3
Format/Info                 : Audio Coding 3
Mode extension              : CM (complete main)
Format settings, Endianness : Big
Codec ID                    : A_AC3
Duration                    : 1h 55mn
Bit rate mode               : Constant
Bit rate                    : 640 Kbps
Channel(s)                  : 6 channels
Channel positions           : Front: L C R, Side: L R, LFE
Sampling rate               : 48.0 KHz
Compression mode            : Lossy
Stream size                 : 529 MiB (9%)
Title                       : AVO | DD 5.1 @ 640 kbps - M.Yarotsky (+18)
Language                    : Russian
Default                     : No
Forced                      : No

Audio #5
ID                          : 6
Format                      : AC-3
Format/Info                 : Audio Coding 3
Mode extension              : CM (complete main)
Format settings, Endianness : Big
Codec ID                    : A_AC3
Duration                    : 1h 55mn
Bit rate mode               : Constant
Bit rate                    : 192 Kbps
Channel(s)                  : 2 channels
Channel positions           : Front: L R
Sampling rate               : 48.0 KHz
Compression mode            : Lossy
Stream size                 : 159 MiB (3%)
Title                       : Dub | DD 2.0 @ 192 kbps - ААА-sound
Language                    : Ukrainian
Default                     : No
Forced                      : No

Audio #6
ID                          : 7
Format                      : AC-3
Format/Info                 : Audio Coding 3
Mode extension              : CM (complete main)
Format settings, Endianness : Big
Codec ID                    : A_AC3
Duration                    : 1h 55mn
Bit rate mode               : Constant
Bit rate                    : 640 Kbps
Channel(s)                  : 6 channels
Channel positions           : Front: L C R, Side: L R, LFE
Sampling rate               : 48.0 KHz
Compression mode            : Lossy
Stream size                 : 529 MiB (9%)
Title                       : Original | DD 5.1 @ 640 kbps
Language                    : English
Default                     : No
Forced                      : No

Text #1
ID                          : 8
Format                      : UTF-8
Codec ID                    : S_TEXT/UTF8
Codec ID/Info               : UTF-8 Plain Text
Title                       : Full
Language                    : English
Default                     : No
Forced                      : No

Text #2
ID                          : 9
Format                      : UTF-8
Codec ID                    : S_TEXT/UTF8
Codec ID/Info               : UTF-8 Plain Text
Title                       : SDH
Language                    : English
Default                     : No
Forced                      : No

Text #3
ID                          : 10
Format                      : UTF-8
Codec ID                    : S_TEXT/UTF8
Codec ID/Info               : UTF-8 Plain Text
Title                       : SDH-Colored
Language                    : English
Default                     : No
Forced                      : No

Menu
00:00:00.000                : en:00:00:00.000
00:04:48.747                : en:00:04:48.747
00:10:29.963                : en:00:10:29.963
00:14:22.987                : en:00:14:22.987
00:18:00.788                : en:00:18:00.788
00:23:17.396                : en:00:23:17.396
00:27:53.130                : en:00:27:53.130
00:34:14.886                : en:00:34:14.886
00:39:51.139                : en:00:39:51.139
00:45:51.582                : en:00:45:51.582
00:50:19.934                : en:00:50:19.934
00:58:10.404                : en:00:58:10.404
01:04:37.165                : en:01:04:37.165
01:08:27.478                : en:01:08:27.478
01:14:44.230                : en:01:14:44.230
01:21:37.726                : en:01:21:37.726
01:31:18.223                : en:01:31:18.223
01:38:39.330                : en:01:38:39.330
01:45:34.370                : en:01:45:34.370
01:49:15.841                : en:01:49:15.841

pb.wtf



Скачать Ганмен через торрент http://i74.fastpic.ru/big/2015/1104/a1/dd2435c98db2f9f6cf1b21631ea994a1.png Скачать фильм Ганмен через торрент бесплантно в хорошем качестве Описание: Джим Террье - ганмен, международный наемник высочайшего класса. Но когда в Компании начинают подчищать хвосты, Джим сам ... 9.8 10 14
Info! Золотая раздача, скачанное не засчитывается.
Торрент: Зарегистрирован [2015-11-04 10:39] · скачан: 282 раз
Статус: √ проверено
Размер: 5.84 GB
Как cкачать? Как скачать Ганмен через торрент | qTorrent

28-11-2019 20:33  

Отключить всю рекламу на сайте

05-04-2020 09:19 Ганмен Скачать торрент  

Парни дайте скорости, совсем печальноpb.wtf



    Дорогой пользователь! Огромная просьба, поблагодарите релизера, оцените раздачу и оставьте свои комментарий, если Вы скачали Ганмен через торрент бесплатно! Внесите свою лепту в развитие PiratBit!
    Комментировать посты могут только пользователи прошедшие не сложную регистрацию
    Показать сообщения:    

    Ганмен через торрент
    Скачать бесплатно Ганмен
    Ганмен скачать торрент
    Ганмен смотреть онлайн
    Cкачать фильм Ганмен бесплатно
    Ганмен скачать торрент в хорошем качестве
    Ганмен смотреть онлайн бесплатно в хорошем качестве


    Вы не можете начинать темы
    Вы не можете отвечать на сообщения
    Вы не можете редактировать свои сообщения
    Вы не можете удалять свои сообщения
    Вы не можете голосовать в опросах
    Вы не можете прикреплять файлы к сообщениям
    Вы можете скачивать файлы