Всегда рабочее зеркало без VPN и Proxy просто перед .vidak.icu напиши любое слово или цифру, Пример http://1mbi.vidak.icu

MVO

2 сезон

2 сезон

1

1 сезон

iTunes

2 сезон

13

1 сезон

Deluxe

pack

Рекомендуем

Пиратка

30

ВАЖНО

RePack

MK11

RePack

jed

RePack

fifa19

RePack

RDR2

RePack

NEED FOR SPEED™ PAYBACK

Кинопоиск HD

6 сезон

 Острые козырьки 6 сезон

Все сериалы

все сериалы на PB.wtf

RePack

FAR CRY 5

Anonymous, нам критически не хватает 5601 руб. на оплату серверов и переферии за Апрель, помоги нам пожалуйста, вся надежда только на тебя. В благодарность мы отключим тебе всю рекламу на сайте!

×
  
Magnet ссылка

Скольжение (Антон Розенберг) [2013 г., триллер, WEB-DLRip,"iTunes"] pb.wtf

Скольжение через торрент pb.wtf

Размер: 2.17 GB | Добавлен: 6 лет 10 мес. назад | Торрент скачан:422 раза
Смотреть онлайн Скольжение | Скачать    Ребята, помогите собрать деньги на оплату серверов!!!

03-07-2015 18:29 Скольжение Скачать торрент  

Скольжение
Год выпуска: 2013
Страна: Россия / Blackbriar production,Multiland
Жанр: триллер
Продолжительность: 01:49:24

Режиссер: Антон Розенберг



В ролях: Владислав Абашин, Алексей Игнатов, Михаил Солодко, Владимир Лукьянчиков, Наталья Швец, Ольга Смирнова, Александр Борисов, Николай Козак, Мария Слидовкер, Алексей Шкатов

Описание: Главный герой с необычным именем-прозвищем Пепл — оперативный сотрудник, однако и он, и вся группа, к которой он принадлежит, типичные, погрязшие в криминальной деятельности, «оборотни в погонах». В отлаженной преступной схеме этой сработавшейся команды начинают возникать сбои, и становится очевидным, что в их рядах есть осведомитель.Обозначенная сюжетная канва не является единственным содержанием фильма — в оболочке криминальной драмы авторы рассказывают глубокую человеческую историю главного героя. Одновременно с описанными событиями он попадает в ситуацию, поставившую его на край реальной гибели, и это впервые заставляет Пепла начать осмысление собственной жизни и того, чем он занимается. Его рефлексия осложняется запутанными, эмоционально тяжелыми отношениями с женой. В результате он больше не может быть прежним, команда чувствует это, и подозрения падают именно на Пепла. Коллеги решают, что он и есть информатор ФСБ. Бывшие соратники превращаются во врагов, слаженный механизм группы работает теперь против Пепла. Он становится объектом безжалостного преследования.Ситуация раскручивается с неконтролируемой скоростью, она необратимо приобретает все более жесткую форму и безысходный характер. Скольжение Пепла становится все быстрее, теперь на кону уже гораздо большее, чем собственная жизнь, и ему придется решать, что для него действительно важно и за что стоит бороться до самого конца.

Качество: WEB-DLRip
Формат: AVI
Видео кодек: XviD
Аудио кодек: AC3
Видео: 720x304 (2.37:1), 24.000 fps, XviD build 50 ~2451 kbps avg, 0.47 bit/pixel
Аудио: 48 kHz, AC3 Dolby Digital, 3/2 (L,C,R,l,r) + LFE ch, ~384 kbps

Общее
Полное имя : F:\кино\Скольжение.2013.WEB-DLRip.avi
Формат : AVI
Формат/Информация : Audio Video Interleave
Профиль формата : OpenDML
Размер файла : 2,17 Гбайт
Продолжительность : 1 ч. 49 м.
Общий поток : 2842 Кбит/сек
Программа кодирования : VirtualDubMod 1.5.10.3 | www.virtualdub-fr.org || (build 2550/release)
Библиотека кодирования : VirtualDubMod build 2550/release

Видео
Идентификатор : 0
Формат : MPEG-4 Visual
Профиль формата : Advanced Simple@L5
Параметр BVOP формата : 3
Параметр QPel формата : Да
Параметр GMC формата : 3 точки перехода
Параметр матрицы формата : Default (H.263)
Идентификатор кодека : XVID
Идентификатор кодека/Подсказка : XviD
Продолжительность : 1 ч. 49 м.
Битрейт : 2447 Кбит/сек
Ширина : 720 пикселей
Высота : 304 пикселя
Соотношение сторон : 2,35:1
Частота кадров : 24,000 кадра/сек
Цветовое пространство : YUV
Субдискретизация насыщенности : 4:2:0
Битовая глубина : 8 бит
Тип развёртки : Прогрессивная
Метод сжатия : С потерями
Бит/(Пиксели*Кадры) : 0.466
Размер потока : 1,87 Гбайт (86%)
Библиотека кодирования : XviD 1.2.1 (UTC 2008-12-04)

Аудио
Идентификатор : 1
Формат : AC-3
Формат/Информация : Audio Coding 3
Расширение режима : CM (complete main)
Параметр Endianness формата : Big
Идентификатор кодека : 2000
Продолжительность : 1 ч. 49 м.
Вид битрейта : Постоянный
Битрейт : 384 Кбит/сек
Каналы : 6 каналов
Расположение каналов : Front: L C R, Side: L R, LFE
Частота : 48,0 КГц
Метод сжатия : С потерями
Размер потока : 301 Мбайт (14%)
Выравнивание : Разделение по промежуткам
Продолжительность промежутка : 42 мс. (1,00 видеокадр)
Время предзагрузки промежутка : 500 мс.

pb.wtf



Скачать Скольжение через торрент https://pic1.kartinco.top/images/10/3r7sl.jpg Скачать, смотреть онлайн Скольжение бесплантно в хорошем качестве Описание: Главный герой с необычным именем-прозвищем Пепл — оперативный сотрудник, однако и он, и вся группа, к которой он принадлежит, ... 8.8 10 23
Info! Золотая раздача, скачанное не засчитывается.
Торрент: Зарегистрирован [2015-07-03 18:29] · скачан: 422 раз
Статус: √ проверено
Размер: 2.17 GB
Как cкачать? Как скачать Скольжение через торрент | UTorrent

% Раздел Тема Автор DL S | L
Порно фильмы без сюжета [ 1.24 GB ] Скольжение Тела / Body Sliding [2020 All Sex Massage WEB-DL] bashai5 Скачать
1 | 0
Наши фильмы (HD, WEB-DL 720p, 1080p) [ 3.72 GB ] Скольжение [2013 Россия WEB-DL 1080p) GEKADOL Скачать
1 | 0
Наши фильмы 2013 [ 1.46 GB ] Скольжение [2013 Россия WEB-DLRip) Twi7ter Скачать
1 | 0
Наши фильмы 2013 [ 1.46 GB ] Скольжение [2013 Россия WEB-DLRip) GEKADOL Скачать
2 | 0
Наши фильмы (HD, WEB-DL 720p, 1080p) [ 3.35 GB ] Скольжение [2013 Россия WEB-DL 720p) GEKADOL Скачать
1 | 0
Классические порно фильмы [ 770 MB ] Даниэла мини-скольжения / Daniela mini-slip [1979 FeatureComedyClassicRetro VHSRip Оригинал] Magnat Скачать
1 | 0

28-11-2019 20:33  

Отключить всю рекламу на сайте

04-07-2015 00:23 Скольжение Скачать торрент  

Фильм 5 баллов.pb.wtf



04-07-2015 06:38 Скольжение Скачать торрент  

Фильм понравился. Не могу песню найти, играет когда девушка в Домодедово заходит.pb.wtf



04-07-2015 07:43 Скольжение Скачать торрент  

Quarantine писал(а):

Фильм понравился. Не могу песню найти, играет когда девушка в Домодедово заходит.

Согласен, песню просто так не найти)))pb.wtf



06-07-2015 05:54 Скольжение Скачать торрент  

Отличное кино. Даже удивило.pb.wtf



    Дорогой пользователь! Огромная просьба, поблагодарите релизера, оцените раздачу и оставьте свои комментарий, если Вы скачали Скольжение через торрент бесплатно!
    Комментировать посты могут только пользователи прошедшие не сложную регистрацию
    Показать сообщения:    

    Скольжение через торрент
    Скачать бесплатно Скольжение
    Скольжение скачать торрент
    Скольжение смотреть онлайн
    Cкачать фильм Скольжение бесплатно
    Скольжение скачать торрент в хорошем качестве
    Скольжение смотреть онлайн бесплатно в хорошем качестве


    Вы не можете начинать темы
    Вы не можете отвечать на сообщения
    Вы не можете редактировать свои сообщения
    Вы не можете удалять свои сообщения
    Вы не можете голосовать в опросах
    Вы не можете прикреплять файлы к сообщениям
    Вы можете скачивать файлы