новый адрес пиратбит piratbit
Мега распродажа FORZA HORIZON 4 ULTIMATE+ВСЕ DLC+ОНЛАЙН всего за 499р. 349 руб. (супер цена). Внимание количество ограничено!!!

iTunes

1+1

iTunes

мы

iTunes

1

iTunes

Чернобыль

iTunes

Ральф против интернета

Лицензия

ПШазам

Лицензия

Игра престолов

Лицензия

30
pack

ВАЖНО

!!Акция!!

Alien_RageХит недели

RePack

Resident Evil 21

ИГРА 18+

pack

RePack

Metro:Exodus

!!Акция!!

Alien_Rage

RePack

fifa19

RePack

Assassins Creed: Odyssey

RePack

NEED FOR SPEED™ PAYBACK

3 сезон

9 сезон

Бесстыжие 9 сезон

Все сериалы

все сериалы на PB.wtf

RePack

FAR CRY 5
Ребята, катастрофически не хватает 1900р. для оплаты серверов за Октябрь (всвязи с блокировками трафик упал в 3 раза), 1-2р., выручайте.
  

Один и без оружия (Владимир Хотиненко, Павел Фаттахутдинов) [1984, СССР, боевик, приключения, DVDRip от AVP Studio] pb.wtf

Один и без оружия через торрент pb.wtf

Размер: 744 MB | Добавлен: 4 года 4 мес. назад | Торрент скачан:9 раз
Скачать  

04-07-2015 08:06 Один и без оружия Скачать торрент  

Один и без оружия
Страна: CCCP
Производство: Свердловская киностудия

Жанр: боевик, приключения
Год выпуска: 1984
Продолжительность: 01:12:32

Перевод: не требуется
Оригинальная аудиодорожка: русский
Cубтитры: нет

Режиссер: Владимир Хотиненко, Павел Фаттахутдинов

В ролях:
Василий Мищенко, Иван Агафонов, Всеволод Ларионов, Виктор Борцов, Борис Галкин, Валерий Захарьев, Андрей Зыков, Адольф Ильин, Дилором Камбарова, Михаил Кононов, Авангард Леонтьев, Елена Майорова, Талгат Нигматулин, Николай Сморчков, Янис Клушс, Пётр Олев, Петр Полев, Александр Сухих...


Действие приключенческого фильма происходят в 1927 году в небольшом губернском городке. Новым начальником уголовного розыска назначается бывший красный командир Константин Воронцов. В это время в городе появляется матерый рецидивист Корней. Благодаря успешно проведенной операции, становится известно место воровского схода, но Корней, предчувствуя засаду, в последний момент меняет место встречи. Времени предупредить своих у Воронцова нет, и ему приходится одному идти на воровской сход…

Исходник: DVD5 R5
Тип релиза: DVDRip
Контейнер: AVI
Видео кодек: XviD
Аудио кодек: MP3
Видео: 688x528 (4:3), 25 fps, XviD ~ 1296 kbps avg, 0.143 bit/pixel
Аудио: 48 kHz, MP3 2.0, 128 kbps

Раздача от:
Общее
Полное имя : Odin.i.bez.oruzhiya.1984.DVDRip-745_[New-team]_by_AVP_Studio.avi
Формат : AVI
Формат/Информация : Audio Video Interleave
Размер файла : 744 Мбайт
Продолжительность : 1 ч. 12 м.
Общий поток : 1434 Кбит/сек
Программа кодирования : VirtualDubModRus 1.5.10.2 (build 2542/release)
Библиотека кодирования : VirtualDubMod build 2542/release

Видео
Идентификатор : 0
Формат : MPEG-4 Visual
Профиль формата : Advanced Simple@L5
Параметр BVOP формата : 1
Параметр QPel формата : Нет
Параметр GMC формата : Без точки перехода
Параметр матрицы формата : Выборочная
Идентификатор кодека : XVID
Идентификатор кодека/Подсказка : XviD
Продолжительность : 1 ч. 12 м.
Битрейт : 1296 Кбит/сек
Ширина : 688 пикселей
Высота : 528 пикселей
Соотношение сторон : 4:3
Частота кадров : 25,000 кадров/сек
Цветовое пространство : YUV
Субдискретизация насыщенности : 4:2:0
Битовая глубина : 8 бит
Тип развёртки : Прогрессивная
Метод сжатия : С потерями
Бит/(Пиксели*Кадры) : 0.143
Размер потока : 673 Мбайт (90%)
Библиотека кодирования : XviD 73

Аудио
Идентификатор : 1
Формат : MPEG Audio
Версия формата : Version 1
Профиль формата : Layer 3
Режим : Joint stereo
Идентификатор кодека : 55
Идентификатор кодека/Подсказка : MP3
Продолжительность : 1 ч. 12 м.
Вид битрейта : Постоянный
Битрейт : 128 Кбит/сек
Каналы : 2 канала
Частота : 48,0 КГц
Метод сжатия : С потерями
Размер потока : 66,4 Мбайт (9%)
Выравнивание : Соединение по промежуткам
Продолжительность промежутка : 40 мс. (1,00 видеокадр)
Время предзагрузки промежутка : 504 мс
pb.wtf



Скачать Один и без оружия через торрент http://i59.fastpic.ru/big/2014/0209/a8/8f554b143db2e5b96c6c78433ea5c3a8.png Скачать фильм Один и без оружия через торрент бесплантно в хорошем качестве В ролях:Василий Мищенко, Иван Агафонов, Всеволод Ларионов, Виктор Борцов, Борис Галкин, Валерий Захарьев, Андрей Зыков, Адольф Ильин, ... 10 10 1
Торрент: Зарегистрирован [2015-07-04 08:06] · скачан: 9 раз
Статус: √ проверено
Размер: 744 MB
Как cкачать? Как скачать Один и без оружия через торрент | qTorrent

% Раздел Тема Автор DL S | L
Кино СССР [ 1.46 GB ] Один и без оружия [1984 СССР DVDRip-AVC от AVP Studio] AVP Studio Скачать
1 | 0
Кино СССР [ 1.46 GB ] Один и без оружия [1984 СССР DVDRip от AVP Studio] AVP Studio Скачать
1 | 0


>> Регистрируемся здесь <<






Отзывы и комментарии о схеме читаем и пишем здесь: ---> Отзывы и комментарии о схеме

Новые благодарочки в телеграм довольных пользователей:
скриншот   скриншот   скриншот   скриншот   скриншот
    Дорогой пользователь! Огромная просьба, поблагодарите релизера, оцените раздачу и оставьте свои комментарий, если Вы скачали Один и без оружия через торрент бесплатно! Внесите свою лепту в развитие PiratBit!
    Комментировать посты могут только пользователи прошедшие не сложную регистрацию
    Показать сообщения:    

    Один и без оружия через торрент
    Скачать бесплатно Один и без оружия
    Один и без оружия скачать торрент
    Один и без оружия смотреть онлайн
    Cкачать фильм Один и без оружия бесплатно
    Один и без оружия скачать торрент в хорошем качестве
    Один и без оружия смотреть онлайн бесплатно в хорошем качестве


    Вы не можете начинать темы
    Вы не можете отвечать на сообщения
    Вы не можете редактировать свои сообщения
    Вы не можете удалять свои сообщения
    Вы не можете голосовать в опросах
    Вы не можете прикреплять файлы к сообщениям
    Вы можете скачивать файлы