новый адрес
Мега распродажа FORZA HORIZON 4 ULTIMATE+ВСЕ DLC+ОНЛАЙН всего за 499р. 349 руб. (супер цена). Внимание количество ограничено!!!

iTunes

1+1

iTunes

мы

iTunes

1

iTunes

Чернобыль

iTunes

Ральф против интернета

Лицензия

ПШазам

Лицензия

Оно 2

Лицензия

30
pack

ВАЖНО

!!Акция!!

Alien_RageХит недели

RePack

Resident Evil 21

ИГРА 18+

pack

RePack

Metro:Exodus

!!Акция!!

Alien_Rage

RePack

fifa19

RePack

Assassins Creed: Odyssey

RePack

NEED FOR SPEED™ PAYBACK

3 сезон

9 сезон

Бесстыжие 9 сезон

Все сериалы

все сериалы на PB.wtf

RePack

FAR CRY 5
Ребята, катастрофически не хватает 1900р. для оплаты серверов за Октябрь (всвязи с блокировками трафик упал в 3 раза), 1-2р., выручайте.
  

Адам и Хева (Алексей Коренев) [ 1970 , СССР , комедия , SATRip ] pb.wtf

Адам и Хева через торрент pb.wtf

Размер: 1.04 GB | Добавлен: 4 года 4 мес. назад | Торрент скачан:12 раз
Скачать  

04-07-2015 09:35 Адам и Хева Скачать торрент  

Адам и ХеваГод выпуска:1970
Страна: СССР
Жанр: комедия

Продолжительность: 01:07:13
Перевод: Не требуется

Субтитры: Нет
Режиссер: Алексей Коренев

В ролях: Фрунзик Мкртчян, Екатерина Васильева, Георгий Гегечкори, Евгений Лебедев, Любовь Добржанская, Барият Мурадова, Рамаз Гиоргобиани, Иван Кузнецов, Ефим Копелян (рассказчик, озвучка), Евгений Гуров (старик-дагестанец), Павел Павленко (старик-дагестанец), Валентин Брылеев (в титрах не указан)
Описание:
По закону шариата муж, давший развод жене, может вернуть ее только после того, как она выйдет замуж и будет изгнана новым мужем. Парикмахер Адам - приличный человек, поэтому гробовщик Бекир выдает свою бывшую жену Хеву за него, с тем чтобы как можно быстрее вернуть ее обратно...
Рейтинг
kinopoisk.ru: 7.393 (134)
imdb.com: 7.50 (24)
Качество: SATRip
Формат: AVI
Видео кодек: XviD
Аудио кодек: MP3
Видео: XviD, 672x400 (1.680), 2083 kbps, 25 fps, 0,310 bpp
Аудио: MP3 / 2.0 / 48 kHz / 108 kbps © Оформление by ФёдорOFF
General
Complete name : D:\раздачи\Адам и Хева.avi
Format : AVI
Format/Info : Audio Video Interleave
File size : 1.04 GiB
Duration : 1h 7mn
Overall bit rate mode : Variable
Overall bit rate : 2 205 Kbps
Writing application : VirtualDubMod 1.5.10.2 (build 2540/release)
Writing library : VirtualDubMod build 2540/release

Video
ID : 0
Format : MPEG-4 Visual
Format profile : Advanced Simple@L5
Format settings, BVOP : 1
Format settings, QPel : No
Format settings, GMC : No warppoints
Format settings, Matrix : Default (MPEG)
Muxing mode : Packed bitstream
Codec ID : XVID
Codec ID/Hint : XviD
Duration : 1h 7mn
Bit rate : 2 084 Kbps
Width : 672 pixels
Height : 400 pixels
Display aspect ratio : 1.680
Frame rate : 25.000 fps
Color space : YUV
Chroma subsampling : 4:2:0
Bit depth : 8 bits
Scan type : Progressive
Compression mode : Lossy
Bits/(Pixel*Frame) : 0.310
Stream size : 1 002 MiB (94%)
Writing library : XviD 1.2.1 (UTC 2008-12-04)

Audio
ID : 1
Format : MPEG Audio
Format version : Version 1
Format profile : Layer 3
Mode : Joint stereo
Mode extension : MS Stereo
Codec ID : 55
Codec ID/Hint : MP3
Duration : 1h 7mn
Bit rate mode : Variable
Bit rate : 109 Kbps
Nominal bit rate : 128 Kbps
Channel(s) : 2 channels
Sampling rate : 48.0 KHz
Compression mode : Lossy
Stream size : 52.4 MiB (5%)
Alignment : Aligned on interleaves
Interleave, duration : 24 ms (0.60 video frame)
Interleave, preload duration : 490 ms
Writing library : LAME3.90.
Encoding settings : -m j -V 4 -q 2 -lowpass 17.6 --abr 128
pb.wtf



Скачать Адам и Хева через торрент http://i70.fastpic.ru/big/2015/0704/36/aa51fa65d9a4a0cc4ac1e1afc6bb2036.jpg Скачать фильм Адам и Хева через торрент бесплантно в хорошем качестве Описание: По закону шариата муж, давший развод жене, может вернуть ее только после того, как она выйдет замуж и будет изгнана новым мужем. ... 9.8 10 4
Info! Золотая раздача, скачанное не засчитывается.
Торрент: Зарегистрирован [2015-07-04 09:35] · скачан: 12 раз
Статус: √ проверено
Размер: 1.04 GB
Как cкачать? Как скачать Адам и Хева через торрент | qTorrent


>> Регистрируемся здесь <<






Отзывы и комментарии о схеме читаем и пишем здесь: ---> Отзывы и комментарии о схеме

Новые благодарочки в телеграм довольных пользователей:
скриншот   скриншот   скриншот   скриншот   скриншот
    Дорогой пользователь! Огромная просьба, поблагодарите релизера, оцените раздачу и оставьте свои комментарий, если Вы скачали Адам и Хева через торрент бесплатно! Внесите свою лепту в развитие PiratBit!
    Комментировать посты могут только пользователи прошедшие не сложную регистрацию
    Показать сообщения:    

    Адам и Хева через торрент
    Скачать бесплатно Адам и Хева
    Адам и Хева скачать торрент
    Адам и Хева смотреть онлайн
    Cкачать фильм Адам и Хева бесплатно
    Адам и Хева скачать торрент в хорошем качестве
    Адам и Хева смотреть онлайн бесплатно в хорошем качестве


    Вы не можете начинать темы
    Вы не можете отвечать на сообщения
    Вы не можете редактировать свои сообщения
    Вы не можете удалять свои сообщения
    Вы не можете голосовать в опросах
    Вы не можете прикреплять файлы к сообщениям
    Вы можете скачивать файлы