новый адрес
Мега распродажа FORZA HORIZON 4 ULTIMATE+ВСЕ DLC+ОНЛАЙН всего за 499р. 349 руб. (супер цена). Внимание количество ограничено!!!

iTunes

1+1

iTunes

мы

iTunes

1

iTunes

Чернобыль

iTunes

Ральф против интернета

Лицензия

ПШазам

Лицензия

Оно 2

Лицензия

30
pack

ВАЖНО

!!Акция!!

Alien_RageХит недели

RePack

Resident Evil 21

ИГРА 18+

pack

RePack

Metro:Exodus

!!Акция!!

Alien_Rage

RePack

fifa19

RePack

Assassins Creed: Odyssey

RePack

NEED FOR SPEED™ PAYBACK

3 сезон

9 сезон

Бесстыжие 9 сезон

Все сериалы

все сериалы на PB.wtf

RePack

FAR CRY 5
Ребята, катастрофически не хватает 1900р. для оплаты серверов за Октябрь (всвязи с блокировками трафик упал в 3 раза), 1-2р., выручайте.
  

Доживем до понедельника (Станислав Ростоцкий) [1968, СССР, мелодрама, DVDRip от AVP Studio] pb.wtf

Доживем до понедельника через торрент pb.wtf

Размер: 745 MB | Добавлен: 4 года 4 мес. назад | Торрент скачан:6 раз
Скачать  

04-07-2015 11:54 Доживем до понедельника Скачать торрент  

Доживем до понедельника
Страна: СССР
Производство: Студия Горького
Жанр: мелодрама
Год выпуска: 1968
Продолжительность: 01:40:14

Перевод: не требуется
Оригинальная аудиодорожка: русский
Cубтитры: нет

Режиссер: Станислав Ростоцкий

В ролях: Вячеслав Тихонов, Ирина Печерникова, Нина Меньшикова, Михаил Зимин, Николай Малишевский, Ольга Жизнева, Людмила Архарова, Валерий Зубарев, Ольга Остроумова, Игорь Старыгин, Любовь Соколова...

Описание:
Три дня из жизни школы. В школу недавно пришла работать учительницей бывшая выпускница, Наташа Горелова (Ирина Печерникова). В этой же школе работает учителем истории Илья Семёнович Мельников (Вячеслав Тихонов). Ему знакомы и сомнения, и чувство неудовлетворенности. Пусть он не всегда бывает прав, но он борется, ищет, любит, преодолевает трудности и сомнения…

Исходник: DVD5 R5
Тип релиза: DVDRip
Контейнер: AVI
Видео кодек: XviD
Аудио кодек: MP3
Видео: 704x304 (2,35:1), 25 fps, XviD ~ 902 kbps avg, 0.169 bit/pixel
Аудио: 48 kHz, MP3 2.0, 128 kbps
Общее
Полное имя : Dozhivem.do.ponedel'nika.1968.DVDRip-745_by_AVP Studio.avi
Формат : AVI
Формат/Информация : Audio Video Interleave
Размер файла : 745 Мбайт
Продолжительность : 1 ч. 40 м.
Общий поток : 1039 Кбит/сек
Программа кодирования : VirtualDubModRus 1.5.10.2 (build 2542/release)
Библиотека кодирования : VirtualDubMod build 2542/release

Видео
Идентификатор : 0
Формат : MPEG-4 Visual
Профиль формата : Advanced Simple@L5
Параметр BVOP формата : 1
Параметр QPel формата : Нет
Параметр GMC формата : Без точки перехода
Параметр матрицы формата : Выборочная
Идентификатор кодека : XVID
Идентификатор кодека/Подсказка : XviD
Продолжительность : 1 ч. 40 м.
Битрейт : 902 Кбит/сек
Ширина : 704 пикселя
Высота : 304 пикселя
Соотношение сторон : 2,35:1
Частота кадров : 25,000 кадров/сек
Цветовое пространство : YUV
Субдискретизация насыщенности : 4:2:0
Битовая глубина : 8 бит
Тип развёртки : Прогрессивная
Метод сжатия : С потерями
Бит/(Пиксели*Кадры) : 0.169
Размер потока : 647 Мбайт (87%)
Библиотека кодирования : XviD 65

Аудио
Идентификатор : 1
Формат : MPEG Audio
Версия формата : Version 1
Профиль формата : Layer 3
Идентификатор кодека : 55
Идентификатор кодека/Подсказка : MP3
Продолжительность : 1 ч. 40 м.
Вид битрейта : Постоянный
Битрейт : 128 Кбит/сек
Каналы : 2 канала
Частота : 48,0 КГц
Метод сжатия : С потерями
Размер потока : 91,8 Мбайт (12%)
Выравнивание : Соединение по промежуткам
Продолжительность промежутка : 40 мс. (1,00 видеокадр)
Время предзагрузки промежутка : 504 мс.
Библиотека кодирования : L3.99r
Настройки программы : -m s -V 4 -q 2 -lowpass 17 -b 128
pb.wtf



Скачать Доживем до понедельника через торрент http://i48.fastpic.ru/big/2013/0427/fb/473793b033cc4965b02305cd738164fb.png Скачать фильм Доживем до понедельника через торрент бесплантно в хорошем качестве Описание:Три дня из жизни школы. В школу недавно пришла работать учительницей бывшая выпускница, Наташа Горелова (Ирина Печерникова). В ... 10 10 2
Info! Золотая раздача, скачанное не засчитывается.
Торрент: Зарегистрирован [2015-07-04 11:54] · скачан: 6 раз
Статус: √ проверено
Размер: 745 MB
Как cкачать? Как скачать Доживем до понедельника через торрент | qTorrent

% Раздел Тема Автор DL S | L
Кино СССР [ 1.46 GB ] Доживем до понедельника [1968 СССР DVDRip-AVC от AVP Studio] AVP Studio Скачать
1 | 0
Кино СССР [ 1.46 GB ] Доживем до понедельника [1968 СССР DVDRip от AVP Studio] AVP Studio Скачать
1 | 0


>> Регистрируемся здесь <<






Отзывы и комментарии о схеме читаем и пишем здесь: ---> Отзывы и комментарии о схеме

Новые благодарочки в телеграм довольных пользователей:
скриншот   скриншот   скриншот   скриншот   скриншот
    Дорогой пользователь! Огромная просьба, поблагодарите релизера, оцените раздачу и оставьте свои комментарий, если Вы скачали Доживем до понедельника через торрент бесплатно! Внесите свою лепту в развитие PiratBit!
    Комментировать посты могут только пользователи прошедшие не сложную регистрацию
    Показать сообщения:    

    Доживем до понедельника через торрент
    Скачать бесплатно Доживем до понедельника
    Доживем до понедельника скачать торрент
    Доживем до понедельника смотреть онлайн
    Cкачать фильм Доживем до понедельника бесплатно
    Доживем до понедельника скачать торрент в хорошем качестве
    Доживем до понедельника смотреть онлайн бесплатно в хорошем качестве


    Вы не можете начинать темы
    Вы не можете отвечать на сообщения
    Вы не можете редактировать свои сообщения
    Вы не можете удалять свои сообщения
    Вы не можете голосовать в опросах
    Вы не можете прикреплять файлы к сообщениям
    Вы можете скачивать файлы