Ссылка на приватное зеркало всего за 1$. Внимание количество ограничено!!!


iTunes

1+1

iTunes

мы

WEB-DL

1

iTunes

Чернобыль

iTunes

Ральф против интернета

Лицензия

ПШазам

Лицензия

Оно 2

WEB-DL

30
pack

Вам бонус

ВАЖНО

!!Акция!!

Alien_RageХит недели

RePack

Resident Evil 21

ИГРА 18+

pack

RePack

jed

!!Акция!!

Alien_Rage

RePack

fifa19

RePack

Assassins Creed: Odyssey

RePack

NEED FOR SPEED™ PAYBACK

4 сезон

9 сезон

Бесстыжие 9 сезон

Все сериалы

все сериалы на PB.wtf

RePack

FAR CRY 5
Ребята, катастрофически не хватает 1900р. для оплаты серверов за Октябрь (всвязи с блокировками трафик упал в 3 раза), 1-2р., выручайте.
  

Иллюзия убийства / F/X (Роберт Мандел) [1986, боевик, триллер, криминал, BDRip AVC by msltel] DUB, 2 x MVO, DVO, 4 x AVO pb.wtf

Иллюзия убийства через торрент pb.wtf

Размер: 3.65 GB | Добавлен: 4 года 5 мес. назад | Торрент скачан:42 раза
Скачать  

05-07-2015 06:32 Иллюзия убийства Скачать торрент  


Название: Иллюзия убийства
Оригинальное название: F/X
Год выпуска: 1986
Страна: США
Жанр: боевик, триллер, криминал
Продолжительность: 01:48:36
Перевод: дублированный, профессиональный многоголосый, профессиональный двухголосый, авторский

Режиссёр: Роберт Мандел

В ролях: Брайан Браун, Брайан Деннехи, Дайан Венора, Клифф Де Янг, Джерри Орбах, Джо Грифази, Марта Геман, Анжела Бассетт

Описание: В шоу-бизнесе нет лучшего мастера спецэффектов, чем Ролли Тайлер. Его уникальные способности создавать на экране грандиозные иллюзии приносят ему множество заказов от крупнейших студий Голливуда. На этот раз его заказчиком становится… Министерство юстиции. Суть дела - разыграть «убийство» важного свидетеля, дающего показания против теневых воротил. Задуманная постановка проходит как по маслу, но в результате свидетель бесследно исчезает, а недоумевающему и ошеломлённому Ролли «пришивают» убийство. Обманутый и преследуемый бывшими работодателями (Отделом полиции Нью-Йорка) Ролли быстро понимает, что никому не может доверять, и единственное средство сохранить жизнь — использование его несравнимого искусства мистификатора...



Качество: BDRip AVC Сравнение с исходником
Формат: MKV
Видео кодек: H.264
Аудио кодек: AC3
Видео: MPEG-4 AVC, 3 Mбит/с, 1024x552, 23,976 кадра/с
Аудио 1: русский, AC3, 192 kbps, 2 ch, 48 kHz [дублированный, Варус видео]
Аудио 2: русский, AC3, 192 kbps, 2 ch, 48 kHz [профессиональный многоголосый, НТВ]
Аудио 3: русский, AC3, 192 kbps, 2 ch, 48 kHz [профессиональный двухголосый, НТВ+]
Аудио 4: русский, AC3, 192 kbps, 2 ch, 48 kHz [авторский, Андрей Гаврилов]

Внешние файлы:
Аудио: русский, AC3, 192 kbps, 2 ch, 48 kHz [профессиональный многоголосый, Позитив-Мультимедиа]
Аудио: русский, AC3, 192 kbps, 2 ch, 48 kHz [авторский, Василий Горчаков]
Аудио: русский, AC3, 192 kbps, 2 ch, 48 kHz [авторский, Юрий Живов]
Аудио: русский, AC3, 192 kbps, 2 ch, 48 kHz [авторский, Максим Ошурков]
Аудио: английский, AC3, 192 kbps, 2 ch, 48 kHz [оригинал]
Субтитры: русские
Субтитры: английские
Общее
Полное имя : D:VideoИллюзия убийства.1986.BDRip.AVCИллюзия убийства.1986.AVO.rus.В.Горчаков.ac3
Формат : AC-3
Формат/Информация : Audio Coding 3
Размер файла : 149 Мбайт
Продолжительность : 1 ч. 48 м.
Режим общего битрейта : Постоянный
Общий поток : 192 Кбит/сек

Аудио
Формат : AC-3
Формат/Информация : Audio Coding 3
Расширение режима : CM (complete main)
Параметр Endianness формата : Big
Продолжительность : 1 ч. 48 м.
Вид битрейта : Постоянный
Битрейт : 192 Кбит/сек
Каналы : 2 канала
Расположение каналов : Front: L R
Частота : 48,0 КГц
Битовая глубина : 16 бит
Метод сжатия : С потерями
Размер потока : 149 Мбайт (100%)

Общее
Полное имя : D:VideoИллюзия убийства.1986.BDRip.AVCИллюзия убийства.1986.AVO.rus.М.Ошурков.ac3
Формат : AC-3
Формат/Информация : Audio Coding 3
Размер файла : 149 Мбайт
Продолжительность : 1 ч. 48 м.
Режим общего битрейта : Постоянный
Общий поток : 192 Кбит/сек

Аудио
Формат : AC-3
Формат/Информация : Audio Coding 3
Расширение режима : CM (complete main)
Параметр Endianness формата : Big
Продолжительность : 1 ч. 48 м.
Вид битрейта : Постоянный
Битрейт : 192 Кбит/сек
Каналы : 2 канала
Расположение каналов : Front: L R
Частота : 48,0 КГц
Битовая глубина : 16 бит
Метод сжатия : С потерями
Размер потока : 149 Мбайт (100%)

Общее
Полное имя : D:VideoИллюзия убийства.1986.BDRip.AVCИллюзия убийства.1986.AVO.rus.Ю.Живов.ac3
Формат : AC-3
Формат/Информация : Audio Coding 3
Размер файла : 149 Мбайт
Продолжительность : 1 ч. 48 м.
Режим общего битрейта : Постоянный
Общий поток : 192 Кбит/сек

Аудио
Формат : AC-3
Формат/Информация : Audio Coding 3
Расширение режима : CM (complete main)
Параметр Endianness формата : Big
Продолжительность : 1 ч. 48 м.
Вид битрейта : Постоянный
Битрейт : 192 Кбит/сек
Каналы : 2 канала
Расположение каналов : Front: L R
Частота : 48,0 КГц
Битовая глубина : 16 бит
Метод сжатия : С потерями
Размер потока : 149 Мбайт (100%)

Общее
Уникальный идентификатор : 222123233161957888292021500221137573602 (0xA71B60EC862F50FABF4B8020818F56E2)
Полное имя : D:VideoИллюзия убийства.1986.BDRip.AVCИллюзия убийства.1986.BDRip.AVC.mkv
Формат : Matroska
Версия формата : Version 4 / Version 2
Размер файла : 2,92 Гбайт
Продолжительность : 1 ч. 48 м.
Общий поток : 3844 Кбит/сек
Название фильма : BDRip -- STarankov
Дата кодирования : UTC 2015-07-05 01:40:47
Программа кодирования : mkvmerge v7.9.0 ('Birds') 64bit
Библиотека кодирования : libebml v1.3.1 + libmatroska v1.4.2
DURATION : 01:48:36.992000000
NUMBER_OF_FRAMES : 203656
NUMBER_OF_BYTES : 156407808
_STATISTICS_WRITING_APP : mkvmerge v7.9.0 ('Birds') 64bit
_STATISTICS_WRITING_DATE_UTC : 2015-07-05 01:40:47
_STATISTICS_TAGS : BPS DURATION NUMBER_OF_FRAMES NUMBER_OF_BYTES

Видео
Идентификатор : 1
Формат : AVC
Формат/Информация : Advanced Video Codec
Профиль формата : High@L4.1
Параметр CABAC формата : Да
Параметр ReFrames формата : 9 кадров
Идентификатор кодека : V_MPEG4/ISO/AVC
Продолжительность : 1 ч. 48 м.
Битрейт : 3000 Кбит/сек
Ширина : 1024 пикселя
Высота : 552 пикселя
Соотношение сторон : 1,85:1
Режим частоты кадров : Постоянный
Частота кадров : 23,976 кадра/сек
Цветовое пространство : YUV
Субдискретизация насыщенности : 4:2:0
Битовая глубина : 8 бит
Тип развёртки : Прогрессивная
Бит/(Пиксели*Кадры) : 0.221
Размер потока : 2,28 Гбайт (78%)
Библиотека кодирования : x264 core 146 r2538 121396c
Настройки программы : cabac=1 / ref=9 / deblock=1:-1:-1 / analyse=0x3:0x113 / me=umh / subme=10 / psy=1 / psy_rd=1.00:0.15 / mixed_ref=1 / me_range=32 / chroma_me=1 / trellis=2 / 8x8dct=1 / cqm=0 / deadzone=21,11 / fast_pskip=1 / chroma_qp_offset=-3 / threads=6 / lookahead_threads=1 / sliced_threads=0 / nr=0 / decimate=1 / interlaced=0 / bluray_compat=0 / constrained_intra=0 / bframes=12 / b_pyramid=2 / b_adapt=2 / b_bias=0 / direct=1 / weightb=1 / open_gop=0 / weightp=2 / keyint=230 / keyint_min=23 / scenecut=40 / intra_refresh=0 / rc_lookahead=40 / rc=crf / mbtree=0 / crf=20.0 / qcomp=0.60 / qpmin=0 / qpmax=69 / qpstep=4 / vbv_maxrate=40000 / vbv_bufsize=50000 / crf_max=0.0 / nal_hrd=none / filler=0 / ip_ratio=1.40 / pb_ratio=1.30 / aq=1:1.00
Язык : English
Default : Да
Forced : Нет
DURATION : 01:48:36.260000000
NUMBER_OF_FRAMES : 156234
NUMBER_OF_BYTES : 2503893505
_STATISTICS_WRITING_APP : mkvmerge v7.9.0 ('Birds') 64bit
_STATISTICS_WRITING_DATE_UTC : 2015-07-05 01:40:47
_STATISTICS_TAGS : BPS DURATION NUMBER_OF_FRAMES NUMBER_OF_BYTES

Аудио #1
Идентификатор : 2
Формат : AC-3
Формат/Информация : Audio Coding 3
Расширение режима : CM (complete main)
Параметр Endianness формата : Big
Идентификатор кодека : A_AC3
Продолжительность : 1 ч. 48 м.
Вид битрейта : Постоянный
Битрейт : 192 Кбит/сек
Каналы : 2 канала
Расположение каналов : Front: L R
Частота : 48,0 КГц
Битовая глубина : 16 бит
Метод сжатия : С потерями
Размер потока : 149 Мбайт (5%)
Заголовок : DUB (Варус видео)
Язык : Russian
Default : Да
Forced : Нет

Аудио #2
Идентификатор : 3
Формат : AC-3
Формат/Информация : Audio Coding 3
Расширение режима : CM (complete main)
Параметр Endianness формата : Big
Идентификатор кодека : A_AC3
Продолжительность : 1 ч. 48 м.
Вид битрейта : Постоянный
Битрейт : 192 Кбит/сек
Каналы : 2 канала
Расположение каналов : Front: L R
Частота : 48,0 КГц
Битовая глубина : 16 бит
Метод сжатия : С потерями
Размер потока : 149 Мбайт (5%)
Заголовок : MVO (HTB)
Язык : Russian
Default : Нет
Forced : Нет

Аудио #3
Идентификатор : 4
Формат : AC-3
Формат/Информация : Audio Coding 3
Расширение режима : CM (complete main)
Параметр Endianness формата : Big
Идентификатор кодека : A_AC3
Продолжительность : 1 ч. 48 м.
Вид битрейта : Постоянный
Битрейт : 192 Кбит/сек
Каналы : 2 канала
Расположение каналов : Front: L R
Частота : 48,0 КГц
Битовая глубина : 16 бит
Метод сжатия : С потерями
Размер потока : 149 Мбайт (5%)
Заголовок : DVO (HTB+)
Язык : Russian
Default : Нет
Forced : Нет

Аудио #4
Идентификатор : 5
Формат : AC-3
Формат/Информация : Audio Coding 3
Расширение режима : CM (complete main)
Параметр Endianness формата : Big
Идентификатор кодека : A_AC3
Продолжительность : 1 ч. 48 м.
Вид битрейта : Постоянный
Битрейт : 192 Кбит/сек
Каналы : 2 канала
Расположение каналов : Front: L R
Частота : 48,0 КГц
Битовая глубина : 16 бит
Метод сжатия : С потерями
Размер потока : 149 Мбайт (5%)
Заголовок : AVO (Андрей Гаврилов)
Язык : Russian
Default : Нет
Forced : Нет

Общее
Полное имя : D:VideoИллюзия убийства.1986.BDRip.AVCИллюзия убийства.1986.eng.srt
Размер файла : 140 Кбайт

Общее
Полное имя : D:VideoИллюзия убийства.1986.BDRip.AVCИллюзия убийства.1986.MVO.rus.Позитив-Мультимедиа.ac3
Формат : AC-3
Формат/Информация : Audio Coding 3
Размер файла : 149 Мбайт
Продолжительность : 1 ч. 48 м.
Режим общего битрейта : Постоянный
Общий поток : 192 Кбит/сек

Аудио
Формат : AC-3
Формат/Информация : Audio Coding 3
Расширение режима : CM (complete main)
Параметр Endianness формата : Big
Продолжительность : 1 ч. 48 м.
Вид битрейта : Постоянный
Битрейт : 192 Кбит/сек
Каналы : 2 канала
Расположение каналов : Front: L R
Частота : 48,0 КГц
Битовая глубина : 16 бит
Метод сжатия : С потерями
Размер потока : 149 Мбайт (100%)

Общее
Полное имя : D:VideoИллюзия убийства.1986.BDRip.AVCИллюзия убийства.1986.Original.eng.ac3
Формат : AC-3
Формат/Информация : Audio Coding 3
Размер файла : 149 Мбайт
Продолжительность : 1 ч. 48 м.
Режим общего битрейта : Постоянный
Общий поток : 192 Кбит/сек

Аудио
Формат : AC-3
Формат/Информация : Audio Coding 3
Расширение режима : CM (complete main)
Параметр Endianness формата : Big
Продолжительность : 1 ч. 48 м.
Вид битрейта : Постоянный
Битрейт : 192 Кбит/сек
Каналы : 2 канала
Расположение каналов : Front: L R
Частота : 48,0 КГц
Битовая глубина : 16 бит
Метод сжатия : С потерями
Размер потока : 149 Мбайт (100%)

Общее
Полное имя : D:VideoИллюзия убийства.1986.BDRip.AVCИллюзия убийства.1986.rus.srt
Размер файла : 114 Кбайт
pb.wtf



Скачать Иллюзия убийства через торрент http://i71.fastpic.ru/big/2015/0704/6f/72ebad02088d3da37747735af589e96f.jpg Скачать фильм Иллюзия убийства через торрент бесплантно в хорошем качестве Описание: В шоу-бизнесе нет лучшего мастера спецэффектов, чем Ролли Тайлер. Его уникальные способности создавать на экране грандиозные ... 10 10 5
Торрент: Зарегистрирован [2015-07-05 06:32] · скачан: 42 раз
Статус: √ проверено
Размер: 3.65 GB
Как cкачать? Как скачать Иллюзия убийства через торрент | qTorrent

% Раздел Тема Автор DL S | L
Фильмы [HD 720p, 1080p] (Хороший звук DUB, MVO) [ 5.23 GB ] Иллюзия убийства / F/X [1986 BDRip 720p by msltel] DUB 2 x MVO DVO 4 x AVO msltel Скачать
1 | 0
Фильмы [HD 720p, 1080p] (Хороший звук DUB, MVO) [ 14.58 GB ] Иллюзия убийства / F/X [1986 BDRip 1080p ot msltel] DUB 2 x MVO DVO 4 x AVO msltel Скачать
1 | 0

28-11-2019 20:33  

Отключить всю рекламу на сайте

    Дорогой пользователь! Огромная просьба, поблагодарите релизера, оцените раздачу и оставьте свои комментарий, если Вы скачали Иллюзия убийства через торрент бесплатно! Внесите свою лепту в развитие PiratBit!
    Комментировать посты могут только пользователи прошедшие не сложную регистрацию
    Показать сообщения:    

    Иллюзия убийства через торрент
    Скачать бесплатно Иллюзия убийства
    Иллюзия убийства скачать торрент
    Иллюзия убийства смотреть онлайн
    Cкачать фильм Иллюзия убийства бесплатно
    Иллюзия убийства скачать торрент в хорошем качестве
    Иллюзия убийства смотреть онлайн бесплатно в хорошем качестве


    Вы не можете начинать темы
    Вы не можете отвечать на сообщения
    Вы не можете редактировать свои сообщения
    Вы не можете удалять свои сообщения
    Вы не можете голосовать в опросах
    Вы не можете прикреплять файлы к сообщениям
    Вы можете скачивать файлы