Anonymous, добрый день, присоединяйтесь к нам в Telegram!, здесь всегда актуальный адрес сайта, оперативная поддержка и многое другое!

>

5.5

iTunes

7.4

iTunes

7.9

iTunes

1

7.7

1 сезон

6.8

iTunes

7.3

1 сезон

13

6.7

1 сезон

8.3

RePack

30

ULTIMATE

pack

9.9

Лицензия

ВАЖНО

ИГРА 18+

pack

7.3

RePack

MK11

7.7

RePack

jed

7.8

RePack

fifa19

8.5

RePack

RDR2

RePack

NEED FOR SPEED™ PAYBACK

4 сезон

9 сезон

Бесстыжие 9 сезон

Все сериалы

все сериалы на PB.wtf

RePack

FAR CRY 5

Anonymous, добрый день, мы катастрофически не успеваем собрать деньги на оплату серверов, помогите нам пожалуйста 5,10,15р., для нас важна любая помощь . В качестве благодарности мы отключим Вам всю рекламу на сайте (укажите свой ник в строку Ваше имя)!

×
  
Magnet ссылка

Багровые реки: Дилогия / Les Rivieres pourpres: Dilogy (Матьё Кассовиц, Оливье Даан) (2000, 2004, Франция, Италия, Великобритания, Триллер, криминал, детектив, BDRip 720p,DUB) 60fps от R.G. HD-Films pb.wtf

Багровые реки: Дилогия через торрент pb.wtf

Размер: 8.96 GB | Добавлен: 6 лет 3 мес. назад | Торрент скачан:190 раз
Смотреть онлайн Багровые реки: Дилогия | Скачать    Ребята, помогите собрать деньги на оплату серверов!!!

06-07-2015 10:38 Багровые реки: Дилогия Скачать торрент  

Багровые реки: Дилогия / Les Rivieres pourpres: Dilogy
Багровые реки / Les Rivieres pourpres
Год выпуска: 2000
Страна: Франция
Жанр: триллер, криминал, детектив

Продолжительность: 01:46:11
Перевод: Дубляж
Субтитры: русские (Полные),
Режиссер: Матьё Кассовиц
В ролях: Жан Рено (Pierre Niemans), Венсан Кассель (Max Kerkerian), Надя Фарес (Fanny Ferreira), Доминик Санда (Sister Andrée), Карим Белхадра (Captain Dahmane), Жан-Пьер Кассель (Dr. Bernard Chernezé), Дидье Фламан (The Dean), Франсуа Леванталь (Pathologist), Франсин Берже (Headmistress), Филипп Наон (Man at Petrol Station), Лоран Лафитт (Hubert, the Dean's Son), Робер Гендрю (Cemetery Warden)
Описание:
В престижном колледже в Альпах совершено зверское убийство, которое расследует опытный комиссар полиции Пьер Ньеманс. Тем временем в другом местечке происходит еще одно, весьма странное преступление - кто-то раскапывает и оскверняет могилу 10-летней девочки.
Это дело ведет молодой детектив Макс Керкерьян. Кажется, между данными событиями нет связи. Но она существует! И когда оба полицейских обнаруживают ее, доселе виденные ими заурядные злодеяния постепенно меркнут по сравнению с тем сердцем тьмы, куда приведут их поиски правды. Смертельно опасной правды...

Рейтинг:

Качество: BDRip 720p / 60fps
Формат: MKV
Видео кодек: AVC
Аудио кодек:AC3
Видео: AVC, 1280x544 (2.35:1), 5918 kbps, 60 fps, 0,142 bpp
Аудио: русский / AC3 / 5.1 / 48 kHz / 384 kbps / 16 bit ||
Навигация по главам: есть
Релиз:
General
Unique ID : 223260614979303204660432849483445192818 (0xA7F66E2D5309B0E28DE0E64312464872)
Complete name : E:\Les Rivieres pourpres Dilogy (2000-2004)\Les.Rivieres.pourpres.(2000).BDRip.720p.(60 Fps).mkv
Format : Matroska
Format version : Version 4 / Version 2
File size : 4.77 GiB
Duration : 1h 46mn
Overall bit rate : 6 430 Kbps
Movie name : Багровые реки | Les Rivieres pourpres (2000) BDRip 720p от R.G. HD-Films | 60 fps
Encoded date : UTC 2015-07-06 09:27:37
Writing application : mkvmerge v6.2.0 ('Promised Land') built on Apr 28 2013 12:22:01
Writing library : libebml v1.3.0 + libmatroska v1.4.0

Video
ID : 1
Format : AVC
Format/Info : Advanced Video Codec
Format profile : High@L4.1
Format settings, CABAC : Yes
Format settings, ReFrames : 4 frames
Codec ID : V_MPEG4/ISO/AVC
Duration : 1h 46mn
Bit rate : 5 918 Kbps
Width : 1 280 pixels
Height : 544 pixels
Display aspect ratio : 2.35:1
Frame rate : 60.000 fps
Color space : YUV
Chroma subsampling : 4:2:0
Bit depth : 8 bits
Scan type : Progressive
Bits/(Pixel*Frame) : 0.142
Stream size : 4.39 GiB (92%)
Title : slaventi-69 ( R.G. HD-Films | 60 fps )
Writing library : x264 core 130 r2273 b3065e6
Encoding settings : cabac=1 / ref=4 / deblock=1:0:0 / analyse=0x3:0x113 / me=umh / subme=9 / psy=1 / psy_rd=1.00:0.00 / mixed_ref=1 / me_range=24 / chroma_me=1 / trellis=2 / 8x8dct=1 / cqm=0 / deadzone=21,11 / fast_pskip=1 / chroma_qp_offset=-2 / threads=8 / lookahead_threads=1 / sliced_threads=0 / nr=0 / decimate=1 / interlaced=0 / bluray_compat=0 / constrained_intra=0 / bframes=4 / b_pyramid=2 / b_adapt=2 / b_bias=0 / direct=1 / weightb=1 / open_gop=0 / weightp=2 / keyint=250 / keyint_min=25 / scenecut=40 / intra_refresh=0 / rc_lookahead=40 / rc=crf / mbtree=1 / crf=16.0 / qcomp=0.60 / qpmin=0 / qpmax=69 / qpstep=4 / ip_ratio=1.40 / aq=1:1.00
Language : French
Default : Yes
Forced : No

Audio
ID : 2
Format : AC-3
Format/Info : Audio Coding 3
Mode extension : CM (complete main)
Codec ID : A_AC3
Duration : 1h 46mn
Bit rate mode : Constant
Bit rate : 384 Kbps
Channel(s) : 6 channels
Channel positions : Front: L C R, Side: L R, LFE
Sampling rate : 48.0 KHz
Bit depth : 16 bits
Compression mode : Lossy
Stream size : 292 MiB (6%)
Title : Dub
Language : Russian
Default : Yes
Forced : No

Text
ID : 3
Format : UTF-8
Codec ID : S_TEXT/UTF8
Codec ID/Info : UTF-8 Plain Text
Title : Полные
Language : Russian
Default : No
Forced : No

Menu
00:00:00.000 : :Chapter 01
00:05:26.708 : :Chapter 02
00:07:29.375 : :Chapter 03
00:12:49.750 : :Chapter 04
00:17:57.958 : :Chapter 05
00:21:56.041 : :Chapter 06
00:24:21.875 : :Chapter 07
00:27:21.375 : :Chapter 08
00:34:20.708 : :Chapter 09
00:37:30.541 : :Chapter 10
00:44:01.000 : :Chapter 11
00:50:35.250 : :Chapter 12
00:56:23.583 : :Chapter 13
01:04:02.500 : :Chapter 14
01:06:55.250 : :Chapter 15
01:12:26.958 : :Chapter 16
01:16:43.500 : :Chapter 17
01:21:34.791 : :Chapter 18
01:25:39.125 : :Chapter 19
01:29:52.000 : :Chapter 20
01:33:45.875 : :Chapter 21
01:38:08.416 : :Chapter 22
01:42:15.416 : :Chapter 23
скриншот   скриншот   скриншот   скриншот   скриншот  Просьба к переливающим на другие сайты, в оформлении указывайте пожалуйста авторство рипа slaventi-69
Багровые реки 2: Ангелы апокалипсиса / Les rivières pourpres II - Les anges de l'apocalypse
Год выпуска: 2004
Страна: Франция, Италия, Великобритания
Жанр: боевик, триллер, криминал

Продолжительность: 01:39:10
Перевод: Дубляж
Субтитры: русские (Полные),
Режиссер: Оливье Даан
В ролях: Жан Рено (Pierre Niemans), Бенуа Мажимель (Reda), Кристофер Ли (Heinrich von Garten), Камилль Натта (Marie), Джонни Халлидей (L'ermite borgne), Габриель Лазюр (La femme de Philippe), Огустен Легран (Jésus), Серж Рябукин (Père Vincent), Андре Пенверн (Père Dominique), Франсис Рено (Flic Reda #1), Давид Саракино (Flic Reda #2), Микаэль Абитбуль (Flic #1)
Описание:
Капитан Пьер Ниман - полицейский. Чертовски хороший полицейский. Один из лучших. Его работа требуется в особенных случаях. Он умный и храбрый, за словом в карман не полезет. Он любит работать один, но зачастую ему требуется напарник, а то и два. Он ненавидит собак, но имеет свою собственную - йоркширского терьера.
Ему доставляет радость воздать по заслугам бандитам и убийцам, тем более, что они верят в свою безнаказанность, пока не перейдут дорогу Пьеру Ниману. Ниман расследует дело о человеке, замурованном в стену с загадочными знаками. В это время Реда, молодой капитан полиции, находит у дверей церкви полумёртвого двойника Иисуса Христа. Реда полагает, что эта история как-то связана с расследованием Нимана, учеником которого он был в полицейской школе.
В округе продолжаются убийства: таинственные монахи, обладающие сверхъестественной силой, убивают случайных встречных и исчезают бесследно. При помощи Мари, специалистки по истории религий, Ниман и Реда пытаются найти ответы на все вопросы...

Рейтинг:

Качество: BDRip 720p / 60fps
Формат: MKV
Видео кодек: AVC
Аудио кодек:AC3
Видео: AVC, 1280x544 (2.35:1), 5537 kbps, 60 fps, 0,133 bpp
Аудио: русский / AC3 / 5.1 / 48 kHz / 384 kbps / 16 bit ||
Навигация по главам: есть
Релиз:
General
Unique ID : 201288968554845724624205360613567731784 (0x976ED85F1F74698DA1D03CA1F3CF9848)
Complete name : E:\Les Rivieres pourpres Dilogy (2000-2004)\Les.rivieres.pourpres.II_Les anges.de.l'apocalypse.(2004).BDRip.720p.(60 Fps).mkv
Format : Matroska
Format version : Version 4 / Version 2
File size : 4.19 GiB
Duration : 1h 39mn
Overall bit rate : 6 042 Kbps
Movie name : Багровые реки 2: Ангелы апокалипсиса | Les rivieres pourpres II - Les anges de l'apocalypse (2004) BDRip 720p от R.G. HD-Films | 60 fps
Encoded date : UTC 2015-07-06 09:38:27
Writing application : mkvmerge v6.2.0 ('Promised Land') built on Apr 28 2013 12:22:01
Writing library : libebml v1.3.0 + libmatroska v1.4.0

Video
ID : 1
Format : AVC
Format/Info : Advanced Video Codec
Format profile : High@L4.1
Format settings, CABAC : Yes
Format settings, ReFrames : 4 frames
Codec ID : V_MPEG4/ISO/AVC
Duration : 1h 39mn
Bit rate : 5 538 Kbps
Width : 1 280 pixels
Height : 544 pixels
Display aspect ratio : 2.35:1
Frame rate : 60.000 fps
Color space : YUV
Chroma subsampling : 4:2:0
Bit depth : 8 bits
Scan type : Progressive
Bits/(Pixel*Frame) : 0.133
Stream size : 3.84 GiB (92%)
Title : slaventi-69 ( R.G. HD-Films | 60 fps )
Writing library : x264 core 130 r2273 b3065e6
Encoding settings : cabac=1 / ref=4 / deblock=1:0:0 / analyse=0x3:0x113 / me=umh / subme=9 / psy=1 / psy_rd=1.00:0.00 / mixed_ref=1 / me_range=24 / chroma_me=1 / trellis=2 / 8x8dct=1 / cqm=0 / deadzone=21,11 / fast_pskip=1 / chroma_qp_offset=-2 / threads=8 / lookahead_threads=1 / sliced_threads=0 / nr=0 / decimate=1 / interlaced=0 / bluray_compat=0 / constrained_intra=0 / bframes=4 / b_pyramid=2 / b_adapt=2 / b_bias=0 / direct=1 / weightb=1 / open_gop=0 / weightp=2 / keyint=250 / keyint_min=25 / scenecut=40 / intra_refresh=0 / rc_lookahead=40 / rc=crf / mbtree=1 / crf=18.0 / qcomp=0.60 / qpmin=0 / qpmax=69 / qpstep=4 / ip_ratio=1.40 / aq=1:1.00
Language : French
Default : Yes
Forced : No

Audio
ID : 2
Format : AC-3
Format/Info : Audio Coding 3
Mode extension : CM (complete main)
Codec ID : A_AC3
Duration : 1h 39mn
Bit rate mode : Constant
Bit rate : 384 Kbps
Channel(s) : 6 channels
Channel positions : Front: L C R, Side: L R, LFE
Sampling rate : 48.0 KHz
Bit depth : 16 bits
Compression mode : Lossy
Stream size : 272 MiB (6%)
Title : Dub
Language : Russian
Default : Yes
Forced : No

Text
ID : 3
Format : UTF-8
Codec ID : S_TEXT/UTF8
Codec ID/Info : UTF-8 Plain Text
Title : Полные
Language : Russian
Default : No
Forced : No

Menu
00:00:00.000 : :Chapter 01
00:03:28.166 : :Chapter 02
00:05:05.500 : :Chapter 03
00:09:30.624 : :Chapter 04
00:12:30.999 : :Chapter 05
00:18:28.166 : :Chapter 06
00:23:50.750 : :Chapter 07
00:27:26.166 : :Chapter 08
00:33:30.666 : :Chapter 09
00:37:00.666 : :Chapter 10
00:41:00.916 : :Chapter 11
00:44:16.208 : :Chapter 12
00:47:53.291 : :Chapter 13
00:55:01.500 : :Chapter 14
00:59:57.749 : :Chapter 15
01:04:54.458 : :Chapter 16
01:09:48.166 : :Chapter 17
01:12:48.708 : :Chapter 18
01:17:34.791 : :Chapter 19
01:21:58.041 : :Chapter 20
01:26:52.208 : :Chapter 21
01:32:43.666 : :Chapter 22
01:34:14.541 : :Chapter 23
скриншот   скриншот   скриншот   скриншот   скриншот  Просьба к переливающим на другие сайты, в оформлении указывайте пожалуйста авторство рипа slaventi-69
pb.wtf



Скачать Багровые реки: Дилогия через торрент https://pic.kartinco.top/images/11/dbo41.jpg Скачать, смотреть онлайн Багровые реки: Дилогия бесплантно в хорошем качестве Описание: В престижном колледже в Альпах совершено зверское убийство, которое расследует опытный комиссар полиции Пьер Ньеманс. Тем ... 10 10 8
Info! Золотая раздача, скачанное не засчитывается.
Торрент: Зарегистрирован [2015-07-06 10:38] · скачан: 190 раз
Статус: √ проверено
Размер: 8.96 GB
Как cкачать? Как скачать Багровые реки: Дилогия через торрент | UTorrent

28-11-2019 20:33  

Отключить всю рекламу на сайте

    Дорогой пользователь! Огромная просьба, поблагодарите релизера, оцените раздачу и оставьте свои комментарий, если Вы скачали Багровые реки: Дилогия через торрент бесплатно!
    Комментировать посты могут только пользователи прошедшие не сложную регистрацию
    Показать сообщения:    

    Багровые реки: Дилогия через торрент
    Скачать бесплатно Багровые реки: Дилогия
    Багровые реки: Дилогия скачать торрент
    Багровые реки: Дилогия смотреть онлайн
    Cкачать фильм Багровые реки: Дилогия бесплатно
    Багровые реки: Дилогия скачать торрент в хорошем качестве
    Багровые реки: Дилогия смотреть онлайн бесплатно в хорошем качестве


    Вы не можете начинать темы
    Вы не можете отвечать на сообщения
    Вы не можете редактировать свои сообщения
    Вы не можете удалять свои сообщения
    Вы не можете голосовать в опросах
    Вы не можете прикреплять файлы к сообщениям
    Вы можете скачивать файлы