Ссылка на приватное зеркало всего за 1$. Внимание количество ограничено!!!

iTunes

iTunes

iTunes

1

iTunes

iTunes

iTunes

iTunes

iTunes

30
pack

$ от Little Big

ВАЖНО

!!Акция!!

Alien_RageХит недели

RePack

Resident Evil 21

ИГРА 18+

pack

RePack

jed

!!Акция!!

Alien_Rage

RePack

fifa19

RePack

Assassins Creed: Odyssey

RePack

NEED FOR SPEED™ PAYBACK

4 сезон

9 сезон

Бесстыжие 9 сезон

Все сериалы

все сериалы на PB.wtf

RePack

FAR CRY 5
  

Звонок 2 / The Ring Two (Хидео Наката) [2005, ужасы, триллер, детектив, HDTVRip 1080p, Дубляж] pb.wtf

Звонок 2 через торрент pb.wtf

Размер: 7.94 GB | Добавлен: 5 лет назад | Торрент скачан:10 раз
Скачать  

06-07-2015 17:53 Звонок 2 Скачать торрент  

Звонок 2 / The Ring Two

Год выпуска: 2005
Страна: США
Жанр: ужасы, триллер, детектив
Продолжительность: 01:49:21
Перевод: Дубляж - [Лицензия]
Режиссер: Хидео Наката
В ролях: Наоми Уоттс (Rachel), Саймон Бейкер (Max Rourke), Дэвид Дорфман (Aidan), Элизабет Перкинс (Dr. Emma Temple), Гэри Коул (Martin Savide), Сисси Спейсек (Evelyn), Райан Мерриман (Jake), Эмили ВанКэмп (Emily), Келли Овертон (Betsy), Джеймс Лежер (Doctor), Дэйви Чейз (Samara, хроника), Келли Стейблз (Evil Samara)
Описание:
Чтобы избавиться от кошмарных воспоминаний и начать новую жизнь, Рейчел с сыном переезжают в маленький городок в штате Орегон. Но, когда совершается убийство и на месте преступления обнаруживают загадочную, не подписанную видеокассету, Рейчел понимает, что мстительная Самара вернулась и решительнее, чем прежде намерена продолжить свой безжалостный террор. В отчаянной борьбе за жизнь, свою и сына, Рейчел вновь должна противостоять Самаре.
Рейтинг:

MPAA: PG-13 - Детям до 13 лет просмотр не желателен
Качество: HDTVRip 1080p
Формат: MKV
Видео кодек: MPEG-2 Video
Аудио кодек: AC3
Видео: MPEG-2 Video, 1920x1080 (16:9), 9424 kbps, 29,970 fps, Interlaced (Top Field First), 0,152 bpp
Аудио №1: русский / AC3 / 5.1 / 48 kHz / 384 kbps / 16 bit
Аудио №2: английский / AC3 / 5.1 / 48 kHz / 384 kbps / 16 bit
Сэмпл

Код:

General
Unique ID                                : 198382488547952457277689816173721420035 (0x953F13D7EF594FB3A2341A6EB5D00103)
Format                                   : Matroska
Format version                           : Version 1
File size                                : 7.94 GiB
Duration                                 : 1h 49mn
Overall bit rate mode                    : Variable
Overall bit rate                         : 10.4 Mbps
Encoded date                             : UTC 2006-06-19 19:53:37
Writing application                      : mkvmerge v1.7.0 ('What Do You Take Me For') built on Jun 15 2006 16:18:01
Writing library                          : libebml v0.7.7 + libmatroska v0.8.0

Video
ID                                       : 1
Format                                   : MPEG Video
Format version                           : Version 2
Format profile                           : Main@High
Format settings, BVOP                    : Yes
Format settings, Matrix                  : Custom
Codec ID                                 : V_MPEG2
Codec ID/Info                            : MPEG 1 or 2 Video
Duration                                 : 1h 49mn
Bit rate mode                            : Variable
Bit rate                                 : 9 425 Kbps
Maximum bit rate                         : 18.0 Mbps
Width                                    : 1 920 pixels
Height                                   : 1 080 pixels
Display aspect ratio                     : 16:9
Frame rate                               : 29.970 fps
Standard                                 : Component
Color space                              : YUV
Chroma subsampling                       : 4:2:0
Bit depth                                : 8 bits
Scan type                                : Interlaced
Scan order                               : Top Field First
Compression mode                         : Lossy
Bits/(Pixel*Frame)                       : 0.152
Stream size                              : 7.20 GiB (91%)
Title                                    : звонок 2
Language                                 : Russian
Default                                  : Yes
Forced                                   : No
Color primaries                          : BT.709
Transfer characteristics                 : BT.709
Matrix coefficients                      : BT.709

Audio #1
ID                                       : 2
Format                                   : AC-3
Format/Info                              : Audio Coding 3
Mode extension                           : CM (complete main)
Codec ID                                 : A_AC3
Duration                                 : 1h 49mn
Bit rate mode                            : Constant
Bit rate                                 : 384 Kbps
Channel(s)                               : 6 channels
Channel positions                        : Front: L C R, Side: L R, LFE
Sampling rate                            : 48.0 KHz
Bit depth                                : 16 bits
Compression mode                         : Lossy
Stream size                              : 300 MiB (4%)
Title                                    : звонок 2
Language                                 : Russian
Default                                  : Yes
Forced                                   : No

Audio #2
ID                                       : 3
Format                                   : AC-3
Format/Info                              : Audio Coding 3
Mode extension                           : CM (complete main)
Codec ID                                 : A_AC3
Duration                                 : 1h 49mn
Bit rate mode                            : Constant
Bit rate                                 : 384 Kbps
Channel(s)                               : 6 channels
Channel positions                        : Front: L C R, Side: L R, LFE
Sampling rate                            : 48.0 KHz
Bit depth                                : 16 bits
Compression mode                         : Lossy
Stream size                              : 300 MiB (4%)
Title                                    : the ring 2
Language                                 : English
Default                                  : No
Forced                                   : No

pb.wtf



Скачать Звонок 2 через торрент http://pic1.kartinco.top/images/10/4mxpd.jpg Скачать фильм Звонок 2 через торрент бесплантно в хорошем качестве Описание: Чтобы избавиться от кошмарных воспоминаний и начать новую жизнь, Рейчел с сыном переезжают в маленький городок в штате Орегон. ... 10 10 5
Торрент: Зарегистрирован [2015-07-06 17:53] · скачан: 10 раз
Статус: √ проверено
Размер: 7.94 GB
Как cкачать? Как скачать Звонок 2 через торрент | qTorrent

% Раздел Тема Автор DL S | L
Фильмы [HD 720p, 1080p] (Хороший звук DUB, MVO) [ 6.43 GB ] Звонок / The Ring [2002 BDRip 720p by msltel] DUB MVO 2 x AVO msltel Скачать
1 | 0
Фильмы [HD 720p, 1080p] (Хороший звук DUB, MVO) [ 17.49 GB ] Звонок / The Ring [2002 BDRip 1080p by msltel] DUB MVO 2 x AVO msltel Скачать
1 | 0
Фильмы 2001-2005 [ 4.02 GB ] Звонок / The Ring [2002 BDRip AVC by msltel] DUB MVO 2 x AVO msltel Скачать
1 | 0

28-11-2019 20:33  

Отключить всю рекламу на сайте

    Дорогой пользователь! Огромная просьба, поблагодарите релизера, оцените раздачу и оставьте свои комментарий, если Вы скачали Звонок 2 через торрент бесплатно! Внесите свою лепту в развитие PiratBit!
    Комментировать посты могут только пользователи прошедшие не сложную регистрацию
    Показать сообщения:    

    Звонок 2 через торрент
    Скачать бесплатно Звонок 2
    Звонок 2 скачать торрент
    Звонок 2 смотреть онлайн
    Cкачать фильм Звонок 2 бесплатно
    Звонок 2 скачать торрент в хорошем качестве
    Звонок 2 смотреть онлайн бесплатно в хорошем качестве


    Вы не можете начинать темы
    Вы не можете отвечать на сообщения
    Вы не можете редактировать свои сообщения
    Вы не можете удалять свои сообщения
    Вы не можете голосовать в опросах
    Вы не можете прикреплять файлы к сообщениям
    Вы можете скачивать файлы