новый адрес
Ссылка на приватное зеркало всего за 1$. Внимание количество ограничено!!!

iTunes

1+1

iTunes

мы

iTunes

1

iTunes

Чернобыль

iTunes

Ральф против интернета

Лицензия

ПШазам

Лицензия

Оно 2

Лицензия

30
pack

Вам бонус

ВАЖНО

!!Акция!!

Alien_RageХит недели

RePack

Resident Evil 21

ИГРА 18+

pack

RePack

jed

!!Акция!!

Alien_Rage

RePack

fifa19

RePack

Assassins Creed: Odyssey

RePack

NEED FOR SPEED™ PAYBACK

3 сезон

9 сезон

Бесстыжие 9 сезон

Все сериалы

все сериалы на PB.wtf

RePack

FAR CRY 5
Ребята, катастрофически не хватает 1900р. для оплаты серверов за Октябрь (всвязи с блокировками трафик упал в 3 раза), 1-2р., выручайте.
  

Поезд идёт на восток (Юлий Райзман) [1947, СССР, мелодрама, комедия, DVDRip от AVP Studio] pb.wtf

Поезд идёт на восток через торрент pb.wtf

Размер: 1.09 GB | Добавлен: 4 года 4 мес. назад | Торрент скачан:25 раз
Скачать  

06-07-2015 19:56 Поезд идёт на восток Скачать торрент  

Поезд идёт на восток
Страна: СССР
Производство: Мосфильм

Жанр: мелодрама, комедия
Год выпуска: 1947
Продолжительность: 01:27:03

Перевод: Не требуется
Cубтитры: нет
Оригинальная аудиодорожка: русский

Режиссер: Юлий Райзман

В ролях:
Лидия Драновская, Леонид Галлис (дебют в кино), Мария Яроцкая, Михаил Воробьев, Константин Сорокин, Владимир Любимов, Владимир Лепко, Андрей Петров, Владимир Дорофеев, Мария Андрианова; не упомянуты в титрах: Пётр Глебов, Иван Рыжов, Василий Ванин, Эммануил Геллер, Алексей Бахарь, Сергей Блинников, Виктор Бубнов, Георгий Бударов, Евгений Григорьев, Зана Занони, Константин Нассонов, Любовь Соколова, Борис Терентьев, Александр Ханов, Тихон Хренников — моряк с аккордеоном, Александр Гречаный, Сергей Антимонов, Гавриил Белов, Александра Денисова, Виктор Ключарев, Елена Максимова, Николай Никитич, Владимир Уральский, Николай Горлов, Василий Бокарев, Сергей Комаров, Валентина Телегина, Олеся Иванова, Наталья Цветкова, Татьяна Барышева, Александр Хвыля, Алексей Алексеев, Николай Бармин, Муза Крепкогорская, Анатолий Соловьёв, Людмила Геника-Чиркова, Евгений Кузнецов, Татьяна Гурецкая, Сергей Троицкий...

Описание:
Вечером 9 мая 1945 года, когда на площадях и улицах Москвы тысячи людей отмечали праздник Победы, от перрона Северного (нынешнего Ярославского) вокзала отошёл поезд на Владивосток. В купе поезда встретились молоденькая девушка-садовод Зина Соколова, недавно окончившая Тимирязевскую сельскохозакадемию, и офицер-моряк Лаврентьев из Ленинграда. Познакомились они чуть раньше, у окошка вокзального телеграфа. Живой, непосредственный характер Зины моряк принял за несерьёзный, легкомысленный. Лучше узнать друг друга путешественникам помог случай: на одной из станций они отстали от поезда и дальнейший путь совершали уже вдвоём, знакомясь по дороге с людьми и с жизнью нашей необъятной Родины. Соколова и Лаврентьев попадают на огромный завод, выстроенный в тайге. На заводском самолёте они летят дальше на восток, совершают вынужденную посадку, долго едут сквозь тайгу на подводе, ночуют в колхозной МТС и наконец вновь добираются до железной дороги. Скоро конец пути — Владивосток. За время вынужденного совместного путешествия молодые люди полюбили друг друга. Решительное объяснение произошло перед самым Владивостоком. Расставаясь на вокзале, Зина и Лаврентьев знали, что их разлука продлится недолго…

Источник: DVD5 R5
Качество видео: DVDRip
Формат видео: AVI
Видео кодек: XviD
Аудио кодек: AC3
Видео: 688x512 (4:3), 25 fps, XviD ~ 1588 kbps avg, 0.180 bit/pixel
Аудио: 48 kHz, Dolby Digital AC3 2.0, 192 kbps

Раздача от:
Общее
Полное имя : Poezd.idet.na.Vostok.1947.DVDRip_[New-team]_by_AVP_Studio.avi
Формат : AVI
Формат/Информация : Audio Video Interleave
Размер файла : 1,09 Гбайт
Продолжительность : 1 ч. 27 м.
Общий поток : 1789 Кбит/сек
Программа кодирования : VirtualDubModRus 1.5.10.2 (build 2542/release)
Библиотека кодирования : VirtualDubMod build 2542/release

Видео
Идентификатор : 0
Формат : MPEG-4 Visual
Профиль формата : Advanced Simple@L5
Параметр BVOP формата : 1
Параметр QPel формата : Нет
Параметр GMC формата : Без точки перехода
Параметр матрицы формата : Выборочная
Идентификатор кодека : XVID
Идентификатор кодека/Подсказка : XviD
Продолжительность : 1 ч. 27 м.
Битрейт : 1588 Кбит/сек
Ширина : 688 пикселей
Высота : 512 пикселей
Соотношение сторон : 4:3
Частота кадров : 25,000 кадров/сек
Цветовое пространство : YUV
Субдискретизация насыщенности : 4:2:0
Битовая глубина : 8 бит
Тип развёртки : Прогрессивная
Метод сжатия : С потерями
Бит/(Пиксели*Кадры) : 0.180
Размер потока : 988 Мбайт (89%)
Библиотека кодирования : XviD 73

Аудио
Идентификатор : 1
Формат : AC-3
Формат/Информация : Audio Coding 3
Расширение режима : CM (complete main)
Параметр Endianness формата : Big
Идентификатор кодека : 2000
Продолжительность : 1 ч. 27 м.
Вид битрейта : Постоянный
Битрейт : 192 Кбит/сек
Каналы : 2 канала
Расположение каналов : Front: L R
Частота : 48,0 КГц
Битовая глубина : 16 бит
Метод сжатия : С потерями
Размер потока : 120 Мбайт (11%)
Выравнивание : Разделение по промежуткам
Продолжительность промежутка : 40 мс. (1,00 видеокадр)
Время предзагрузки промежутка : 500 мс
pb.wtf



Скачать Поезд идёт на восток через торрент http://s019.radikal.ru/i618/1507/75/89f09bd24a88.png Скачать фильм Поезд идёт на восток через торрент бесплантно в хорошем качестве Описание:Вечером 9 мая 1945 года, когда на площадях и улицах Москвы тысячи людей отмечали праздник Победы, от перрона Северного (нынешнего ... 10 10 1
Торрент: Зарегистрирован [2015-07-06 19:56] · скачан: 25 раз
Статус: √ проверено
Размер: 1.09 GB
Как cкачать? Как скачать Поезд идёт на восток через торрент | qTorrent

% Раздел Тема Автор DL S | L
Кино СССР [ 1.09 GB ] Поезд идёт на восток [1947 СССР DVDRip-AVC от AVP Studio] AVP Studio Скачать
1 | 0
Кино СССР [ 745 MB ] Поезд идёт на восток [1947 СССР DVDRip от AVP Studio] AVP Studio Скачать
1 | 0


>> Переходим по ссылке <<
Автоматически подгузится скрипт который настроит ваш браузер на выигрыш!!
После настройки браузера вероятность выигрыша увеличется в 4.1-4,6 раза.
В течение 6 секунд вам откроется настроенный интерфейс казино, с повышенной вероятностью выигрыша.






Отзывы и комментарии о схеме читаем и пишем здесь: ---> Отзывы и комментарии о схеме

Новые благодарочки в телеграм довольных пользователей:
скриншот   скриншот   скриншот   скриншот   скриншот
    Дорогой пользователь! Огромная просьба, поблагодарите релизера, оцените раздачу и оставьте свои комментарий, если Вы скачали Поезд идёт на восток через торрент бесплатно! Внесите свою лепту в развитие PiratBit!
    Комментировать посты могут только пользователи прошедшие не сложную регистрацию
    Показать сообщения:    

    Поезд идёт на восток через торрент
    Скачать бесплатно Поезд идёт на восток
    Поезд идёт на восток скачать торрент
    Поезд идёт на восток смотреть онлайн
    Cкачать фильм Поезд идёт на восток бесплатно
    Поезд идёт на восток скачать торрент в хорошем качестве
    Поезд идёт на восток смотреть онлайн бесплатно в хорошем качестве


    Вы не можете начинать темы
    Вы не можете отвечать на сообщения
    Вы не можете редактировать свои сообщения
    Вы не можете удалять свои сообщения
    Вы не можете голосовать в опросах
    Вы не можете прикреплять файлы к сообщениям
    Вы можете скачивать файлы