Ссылка на приватное зеркало нашего сайта всего за 1$. Внимание количество ограничено!!!

2 сезон

iTunes

iTunes

1

iTunes

iTunes

iTunes

WEBRip

iTunes

30
pack

Забери бонус

ВАЖНО

!!Акция!!

Alien_RageХит недели

RePack

RESIDENT EVIL 3: NEMESIS REMAKE

ИГРА 18+

pack

RePack

jed

!!Акция!!

Alien_Rage

RePack

fifa19

RePack

Assassins Creed: Odyssey

RePack

NEED FOR SPEED™ PAYBACK

4 сезон

9 сезон

Бесстыжие 9 сезон

Все сериалы

все сериалы на PB.wtf

RePack

FAR CRY 5
  

Рэй Донован / Ray Donovan / Сезон: 3 / Серии 1-12 из 12 (Майкл Аппендаль / Michael Uppendahl, Дэниэл Эттиэс / Daniel Attias, Джон Дал / John Dahl) [2015, США, драма, криминал, HDTVRip 720р] MVO [NewStudio] pb.wtf

Рэй Донован через торрент pb.wtf

Размер: 12 GB | Добавлен: 5 лет назад | Торрент скачан:347 раз
Скачать  

07-07-2015 00:57 Рэй Донован Скачать торрент  

Рэй Донован / Ray Donovan
«Никто никогда не должен узнать...»


  • Год выпуска: 2015
  • Страна: США
  • Жанр: драма, криминал
  • Продолжительность: 00:52:36 (Серия)
  • Перевод: Профессиональный многоголосый закадровый [NewStudio]

  • Режиссер: Майкл Аппендаль / Michael Uppendahl, Дэниэл Эттиэс / Daniel Attias, Джон Дал / John Dahl
  • В ролях:

    Лив Шрайбер (Ray Donovan), Паула Малкомсон (Abby Donovan), Эдди Марсан (Terry Donovan), Дэш Майок (Bunchy Donovan), Джон Войт (Mickey Donovan), Девон Бэгби (Conor Donovan), Кэтрин Менниг (Lena), Стивен Бауэр (Avi), Пуч Холл (Daryll), Кэррис Дорси (Bridget Donovan), Эллиотт Гулд (Ezra Goodman), Уильям Стэнфорд Дэвис (Potato Pie)

  • Описание:
    Рэй Донован - первоклассный специалист по устранению проблем любой сложности. Его клиенты - самые знаменитые и влиятельные люди Лос-Анджелеса, для которых он исполняет практически любые задания. Единственные проблемы, которые Рэю не под силу уладить, возникают в его собственной семье в Южном Бостоне. Одна из них - освобожденный из тюрьмы папаша-гангстер, угрожающий благополучию семейства. Помимо этого, один из братьев Рэя никак не может прийти в себя после совершенного над ним насилия, а второй страдает от болезни Паркинсона. Рэю Доновану предстоит не только помочь близким, но и защитить собственную жену и детей от своего коварного отца, который жаждет вновь занять позицию главы семьи.
  • Рейтинг:



  • Качество: HDTVRip 720р
  • Формат: :MKV
  • Видео кодек: AVC
  • Аудио кодек: AC3
  • Видео: 1280x720 (16:9), 2471 kbps, 23,976 fps, 0,112 bpp
  • Аудио №1: русский / 5.1 / 48 kHz / 384 kbps / 16 bit [NewStudio]|
  • Аудио №2: английский / 5.1 / 48 kHz / 384 kbps / 16 bit
  • Релиз от: GEKADOL

    Код:

    Внимание! Раздача ведётся путём добавления новых серий; при каждом добавлении создаётся новый торрент. Чтобы начать докачку новой серии, пользователям необходимо сделать следующее:
    (1) остановить скачивание,
    (2) удалить старый торрент у себя из клиента (старые серии удалять не надо),
    (3) скачать новый торрент и запустить его у себя в клиенте вместо старого, при этом указать клиенту путь в старую папку куда и должно происходить скачивание новых серий.
    Ваш клиент при этом должен произвести хеширование (проверку) старой папки (если не производит сам - помогите ему сделать это), и будет докачивать только те серии которых у вас ещё нет. Старые серии при этом не удаляются, а продолжают раздаваться!
    Eсли вы уже удалили старые серии, то предотвратить повторную закачку старых серий можно, отжав галочку в соответствующих местах при запуске нового торрента. По возможности, желательно не удалять старые серии как можно дольше чтобы релизёр не столько продолжал раздавать старые серии, а смог сконцентрироваться на новых.


    Код:

    General
    Unique ID                                : 223811205687434981888730488129905249323 (0xA8607865133C23C4B7A0E800FFA44C2B)
    Complete name                            : F:\Ray.Donovan (S03) 720p.NewStudio\Ray.Donovan.s03e01.HDTV.720p.NewStudio.TV.mkv
    Format                                   : Matroska
    Format version                           : Version 4 / Version 2
    File size                                : 1.21 GiB
    Duration                                 : 52mn 36s
    Overall bit rate                         : 3 305 Kbps
    Encoded date                             : UTC 2015-07-06 20:18:22
    Writing application                      : mkvmerge v8.1.0 ('Psychedelic Postcard') 64bit
    Writing library                          : libebml v1.3.1 + libmatroska v1.4.2
    DURATION                                 : 00:52:36.768000000
    NUMBER_OF_FRAMES                         : 98649
    NUMBER_OF_BYTES                          : 151524864
    _STATISTICS_WRITING_APP                  : mkvmerge v8.1.0 ('Psychedelic Postcard') 64bit
    _STATISTICS_WRITING_DATE_UTC             : 2015-07-06 20:18:22
    _STATISTICS_TAGS                         : BPS DURATION NUMBER_OF_FRAMES NUMBER_OF_BYTES

    Video
    ID                                       : 1
    Format                                   : AVC
    Format/Info                              : Advanced Video Codec
    Format profile                           : High@L4.1
    Format settings, CABAC                   : Yes
    Format settings, ReFrames                : 5 frames
    Codec ID                                 : V_MPEG4/ISO/AVC
    Duration                                 : 52mn 36s
    Bit rate                                 : 2 472 Kbps
    Width                                    : 1 280 pixels
    Height                                   : 720 pixels
    Display aspect ratio                     : 16:9
    Frame rate                               : 23.976 fps
    Color space                              : YUV
    Chroma subsampling                       : 4:2:0
    Bit depth                                : 8 bits
    Scan type                                : Progressive
    Bits/(Pixel*Frame)                       : 0.112
    Stream size                              : 930 MiB (75%)
    Writing library                          : x264 core 146 r2538 121396c
    Encoding settings                        : cabac=1 / ref=5 / deblock=1:0:0 / analyse=0x3:0x113 / me=umh / subme=8 / psy=1 / psy_rd=1.00:0.00 / mixed_ref=1 / me_range=16 / chroma_me=1 / trellis=1 / 8x8dct=1 / cqm=0 / deadzone=21,11 / fast_pskip=1 / chroma_qp_offset=-2 / threads=24 / lookahead_threads=4 / sliced_threads=0 / nr=0 / decimate=1 / interlaced=0 / bluray_compat=0 / constrained_intra=0 / bframes=3 / b_pyramid=2 / b_adapt=2 / b_bias=0 / direct=3 / weightb=1 / open_gop=0 / weightp=2 / keyint=250 / keyint_min=23 / scenecut=40 / intra_refresh=0 / rc_lookahead=50 / rc=crf / mbtree=1 / crf=18.0 / qcomp=0.60 / qpmin=0 / qpmax=69 / qpstep=4 / ip_ratio=1.40 / aq=1:1.00
    Language                                 : English
    Default                                  : Yes
    Forced                                   : No
    DURATION                                 : 00:52:36.779000000
    NUMBER_OF_FRAMES                         : 75687
    NUMBER_OF_BYTES                          : 1000480467
    _STATISTICS_WRITING_APP                  : mkvmerge v8.1.0 ('Psychedelic Postcard') 64bit
    _STATISTICS_WRITING_DATE_UTC             : 2015-07-06 20:18:22
    _STATISTICS_TAGS                         : BPS DURATION NUMBER_OF_FRAMES NUMBER_OF_BYTES
    Matrix coefficients                      : BT.709-5, BT.1361, IEC 61966-2-4 709, SMPTE RP177

    Audio #1
    ID                                       : 2
    Format                                   : AC-3
    Format/Info                              : Audio Coding 3
    Mode extension                           : CM (complete main)
    Codec ID                                 : A_AC3
    Duration                                 : 52mn 36s
    Bit rate mode                            : Constant
    Bit rate                                 : 384 Kbps
    Channel(s)                               : 6 channels
    Channel positions                        : Front: L C R, Side: L R, LFE
    Sampling rate                            : 48.0 KHz
    Bit depth                                : 16 bits
    Compression mode                         : Lossy
    Stream size                              : 145 MiB (12%)
    Language                                 : Russian
    Default                                  : Yes
    Forced                                   : No

    Audio #2
    ID                                       : 3
    Format                                   : AC-3
    Format/Info                              : Audio Coding 3
    Mode extension                           : CM (complete main)
    Codec ID                                 : A_AC3
    Duration                                 : 52mn 36s
    Bit rate mode                            : Constant
    Bit rate                                 : 384 Kbps
    Channel(s)                               : 6 channels
    Channel positions                        : Front: L C R, Side: L R, LFE
    Sampling rate                            : 48.0 KHz
    Bit depth                                : 16 bits
    Compression mode                         : Lossy
    Stream size                              : 145 MiB (12%)
    Language                                 : English
    Default                                  : No
    Forced                                   : No




    Скриншоты:
    скриншот   скриншот   скриншот   скриншот   скриншот  
    скриншот  

    Раздача ведётся путём добавления новых серий. Добавлена 12 серия (29.09.2015).Просьба перекачать торрент файл.

    pb.wtf



  • Скачать Рэй Донован через торрент http://i71.fastpic.ru/big/2015/0707/76/183de9d658a39f8f97a21c480b525876.jpeg Скачать фильм Рэй Донован через торрент бесплантно в хорошем качестве Описание: Рэй Донован - первоклассный специалист по устранению проблем любой сложности. Его клиенты - самые знаменитые и влиятельные люди ... 9.6 10 51
    Info! Золотая раздача, скачанное не засчитывается.
    Торрент: Зарегистрирован [2015-09-29 01:39] · скачан: 347 раз
    Статус: √ проверено
    Размер: 12 GB
    Как cкачать? Как скачать Рэй Донован через торрент | qTorrent

    % Раздел Тема Автор DL S | L
    Рэй Донован [ 7.92 GB ] Рэй Донован / Ray Donovan / Сезон: 3 / Серии 1-12 из 12 [2015 HDTVRip] MVO [NewStudio] GEKADOL Скачать
    2 | 0


    Последний раз редактировалось: GEKADOL (2015-09-29 01:39), всего редактировалось 11 раз(а)

    28-11-2019 20:33  

    Отключить всю рекламу на сайте

    14-07-2015 18:55 Рэй Донован Скачать торрент  

    Спасибо!pb.wtf



    16-07-2015 05:56 Рэй Донован Скачать торрент  

    _PsiX_ писал(а):

    Спасибо!

    Вам спасибо за спасибо) pb.wtf



    16-07-2015 19:53 Рэй Донован Скачать торрент  

    Когда выходят серии ?pb.wtf



    21-07-2015 13:45 Рэй Донован Скачать торрент  

    две недели пустота :snooze:pb.wtf



    22-07-2015 03:37 Рэй Донован Скачать торрент  

    hripun писал(а):

    Когда выходят серии ?

    3×5 - 09 авг 2015
    3×4 - 02 авг 2015
    3×3 - 26 июл 2015
    3×2 - 19 июл 2015
    3×1 - 12 июл 2015

    Пока так. Ну и время на озвучку (2-4 дня обычно ну а так все зависит от NewStudio) :сonn: pb.wtf



    04-08-2015 18:34 Рэй Донован Скачать торрент  

    Спасибо)pb.wtf



    19-08-2015 23:00 Рэй Донован Скачать торрент  

    Годный сериал.pb.wtf



    25-08-2015 16:45 Рэй Донован Скачать торрент  

    Спасибо, годнота :)
    А когда ожидаются следующие серии? :pleasantry:pb.wtf



    31-08-2015 10:15 Рэй Донован Скачать торрент  

    3 сезон 12 серия «Exsuscito» 27 Сен 2015 еще 27 дней
    3 сезон 11 серия «Poker» 20 Сен 2015 еще 20 дней
    3 сезон 10 серия «One Night in Yerevan» 13 Сен 2015 еще 13 дней
    3 сезон 9 серия «The Octopus» 6 Сен 2015 еще 6 дней

    Вышедшие серии:
    3 сезон 8 серия «Tulip» 0 30 Авг 2015 + озвучкаpb.wtf



    01-09-2015 20:30 Рэй Донован Скачать торрент  

    сериал мега крут !pb.wtf



    04-09-2015 21:23 Рэй Донован Скачать торрент  

    От сезона к сезону, все лучше и лучше!pb.wtf



    10-10-2015 17:15 Рэй Донован Скачать торрент  

    Классный сериал. Жду новых серий.pb.wtf



      Дорогой пользователь! Огромная просьба, поблагодарите релизера, оцените раздачу и оставьте свои комментарий, если Вы скачали Рэй Донован через торрент бесплатно! Внесите свою лепту в развитие PiratBit!
      Комментировать посты могут только пользователи прошедшие не сложную регистрацию
      Показать сообщения:    

      Рэй Донован через торрент
      Скачать бесплатно Рэй Донован
      Рэй Донован скачать торрент
      Рэй Донован смотреть онлайн
      Cкачать фильм Рэй Донован бесплатно
      Рэй Донован скачать торрент в хорошем качестве
      Рэй Донован смотреть онлайн бесплатно в хорошем качестве


      Вы не можете начинать темы
      Вы не можете отвечать на сообщения
      Вы не можете редактировать свои сообщения
      Вы не можете удалять свои сообщения
      Вы не можете голосовать в опросах
      Вы не можете прикреплять файлы к сообщениям
      Вы можете скачивать файлы