Доктор Стрэндж

Лицензия

Добыча

MVO

Дом дракона

1 сезон

Тор

Лицензия

Мэверик

Лицензия

Там, где раки поют

MVO

Властелин колец

1 сезон

Ultimate

pack

Рекомендуем

30

Repack

ВАЖНО

ВАЖНО

Ghostwire

RePack

jed

RePack

nioh2

RePack

RDR2

RePack

NEED FOR SPEED™ PAYBACK

RePack

скачать торрент

Кинопоиск HD

Острые козырьки 6 сезон

6 сезон

FAR CRY 6

RePack

скачать торрент

Лицензия

скачать торрент

MVO

1

1 сезон

скачать торрент

1 сезон

скачать торрент

Лицензия

  

Пионеры-герои (Наталья Кудряшова ) [2015, драма, WEB-DL 1080p, ]

Пионеры-герои через торрент pb.wtf

Размер: 3.89 GB | Добавлен: 7 лет 2 мес. назад | Торрент скачан:140 раз
Смотреть онлайн Пионеры-герои | Скачать   

07-07-2015 07:55 Пионеры-герои Скачать торрент  

Пионеры-герои

Год выпуска: 2015
Страна: Россия
Жанр: драма

Продолжительность: 01:55:22
Перевод: Не требуется
Режиссер: Наталья Кудряшова
В ролях: Наталья Кудряшова (Ольга Красько), Дарья Мороз (Катя Елисеева), Алексей Митин (Сергеев), Александр Усердин (психоаналитик), Светлана Письмиченко, Ёла Санько (учитель пения), Юрий Кузнецов, Александр Обласов (майор), Владимир Капустин (мужчина на «Волге»), Жанна Демихова (классная учительница), Никита Яковлев, Светлана Смирнова-Марцинкевич (девушка Сергеева)
Описание:
Ольга, Катя и Андрей давно приехали в Москву, они дружат со школы. Они вполне успешны. Ольга - актриса, Катя - работает в крупном PR-агентстве, Андрей политический аналитик. Они покупают машины, берут ипотеки, строят дачи. Живут как все. Но это не приносит им ни счастья, ни удовлетворения. Ощущение, «что все вроде нормально, но что-то не так» - лейтмотив жизни сегодняшних тридцатилетних. Их детство пришлось на советскую пору - когда дети мечтали о подвигах, верили в шпионов и светлое будущее, и никто не ожидал, что мечту о подвиге заменит мечта о стабильности. Люди больше не мечтают о великом. Они просто живут.
Рейтинг:

Качество: WEB-DL 1080p
Формат: MKV
Видео кодек: AVC
Аудио кодек: AC3
Видео: AVC, 1920x800 (2.40:1), 4349 kbps, 24 fps, 0,118 bpp
Аудио: русский / AC3 / 5.1 / 48 kHz / 384 kbps / 16 bit ||
Навигация по главам: есть

Код:

General
Unique ID                                : 235812541250468158942853182679977331398 (0xB167D7EC0D905BBFB7AF13A805488AC6)
Complete name                            : D:\Торенты\p10HePY.geP0i.2015.O.WEB-DL.1080p.mkv
Format                                   : Matroska
Format version                           : Version 4 / Version 2
File size                                : 3.89 GiB
Duration                                 : 1h 55mn
Overall bit rate                         : 4 829 Kbps
Encoded date                             : UTC 2015-07-07 04:46:35
Writing application                      : mkvmerge v6.5.0 ('Isn't she lovely') built on Oct 20 2013 12:50:05
Writing library                          : libebml v1.3.0 + libmatroska v1.4.1

Video
ID                                       : 1
Format                                   : AVC
Format/Info                              : Advanced Video Codec
Format profile                           : [email protected]
Format settings, CABAC                   : Yes
Format settings, ReFrames                : 5 frames
Codec ID                                 : V_MPEG4/ISO/AVC
Duration                                 : 1h 55mn
Bit rate                                 : 4 349 Kbps
Width                                    : 1 920 pixels
Height                                   : 800 pixels
Display aspect ratio                     : 2.40:1
Frame rate                               : 24.000 fps
Color space                              : YUV
Chroma subsampling                       : 4:2:0
Bit depth                                : 8 bits
Scan type                                : Progressive
Bits/(Pixel*Frame)                       : 0.118
Stream size                              : 3.50 GiB (90%)
Language                                 : Russian
Default                                  : Yes
Forced                                   : No
Color primaries                          : BT.709-5, BT.1361, IEC 61966-2-4, SMPTE RP177
Transfer characteristics                 : BT.709-5, BT.1361
Matrix coefficients                      : BT.709-5, BT.1361, IEC 61966-2-4 709, SMPTE RP177

Audio
ID                                       : 2
Format                                   : AC-3
Format/Info                              : Audio Coding 3
Mode extension                           : CM (complete main)
Codec ID                                 : A_AC3
Duration                                 : 1h 55mn
Bit rate mode                            : Constant
Bit rate                                 : 384 Kbps
Channel(s)                               : 6 channels
Channel positions                        : Front: L C R, Side: L R, LFE
Sampling rate                            : 48.0 KHz
Bit depth                                : 16 bits
Compression mode                         : Lossy
Stream size                              : 317 MiB (8%)
Language                                 : Russian
Default                                  : Yes
Forced                                   : No

Menu
00:00:00.000                             : en:Глава 1
00:04:52.000                             : en:Глава 2
00:10:07.000                             : en:Глава 3
00:13:42.000                             : en:Глава 4
00:18:43.000                             : en:Глава 5
00:22:49.000                             : en:Глава 6
00:27:32.000                             : en:Глава 7
00:33:51.000                             : en:Глава 8
00:38:00.000                             : en:Глава 9
00:43:36.000                             : en:Глава 10
00:52:21.000                             : en:Глава 11
00:58:53.000                             : en:Глава 12
01:05:41.000                             : en:Глава 13
01:12:23.000                             : en:Глава 14
01:16:59.000                             : en:Глава 15
01:22:17.000                             : en:Глава 16
01:29:02.000                             : en:Глава 17
01:33:45.000                             : en:Глава 18
01:38:15.000                             : en:Глава 19
01:42:53.000                             : en:Глава 20




Скачать Пионеры-герои через торрент http://i1-imageban-ru.translate.goog/out/2015/07/07/6608420a73ebf99be6f0bc26682b2523.jpg Скачать, смотреть онлайн Пионеры-герои бесплантно в хорошем качестве Описание: Ольга, Катя и Андрей давно приехали в Москву, они дружат со школы. Они вполне успешны. Ольга - актриса, Катя - работает в крупном ... 10 10 12
Info! Золотая раздача, скачанное не засчитывается.
Торрент: Зарегистрирован [2015-07-07 07:55] · скачан: 140 раз
Статус: √ проверено
Размер: 3.89 GB
Как cкачать? Как скачать Пионеры-герои через торрент | UTorrent

% Раздел Тема Автор DL S | L
Наши фильмы 2015 [ 1.45 GB ] Пионеры-герои | iTunes | DLRip / iTunes Ворон Скачать
1 | 0

28-11-2019 20:33  

Отключить вcю реклaмy на сайте

    Дорогой пользователь! Огромная просьба, поблагодарите релизера, оцените раздачу и оставьте свои комментарий, если Вы скачали Пионеры-герои через торрент бесплатно!!
    Комментировать посты могут только пользователи прошедшие не сложную регистрацию
    Показать сообщения:    


    Пионеры-герои через торрент
    Скачать бесплатно Пионеры-герои
    Пионеры-герои скачать торрент
    Пионеры-герои смотреть онлайн
    Cкачать фильм Пионеры-герои бесплатно
    Пионеры-герои скачать торрент в хорошем качестве
    Пионеры-герои смотреть онлайн бесплатно в хорошем качестве
    Вы не можете начинать темы
    Вы не можете отвечать на сообщения
    Вы не можете редактировать свои сообщения
    Вы не можете удалять свои сообщения
    Вы не можете голосовать в опросах
    Вы не можете прикреплять файлы к сообщениям
    Вы можете скачивать файлы