2 сезон

iTunes

MVO

1

2 сезон

iTunes

iTunes

1 сезон

RePack

30

Ultimate

ВАЖНО

ИГРА 18+

pack

RePack

MK11
pack

Легкие деньги

RePack

jed

RePack

fifa19

RePack

RDR2

RePack

NEED FOR SPEED™ PAYBACK

4 сезон

9 сезон

Бесстыжие 9 сезон

Все сериалы

все сериалы на PB.wtf

RePack

FAR CRY 5

Anonymous, доброй ночи, мы не успеваем собрать деньги на оплату серверов за декабрь и январь, помогите нам пожалуйста в это трудное время. В качестве благодарности мы отключим Вам всю рекламу на сайте (укажите свой ник в строку Ваше имя)!

×
  
Magnet ссылка

Схватка / Heat (Майкл Манн) [1995, боевик, триллер, драма, BDRip 1080p / 60 FPS] 3xMVO + 2xAVO от R.G. HD-Films pb.wtf

Схватка через торрент pb.wtf

Размер: 19.2 GB | Добавлен: 5 лет 6 мес. назад | Торрент скачан:89 раз
Скачать  

08-07-2015 14:22 Схватка Скачать торрент  


Схватка / Heat
«Криминальная сага Лос-Анджелеса»

ИНФОРМАЦИЯ:
Год выпуска: 1995
Страна: США
Жанр: боевик, триллер, драма, криминал

Продолжительность: 02:50:31
Перевод: Профессиональный (многоголосый); Авторский (одноголосый)
Субтитры: русские (Twister), русские (Gemini), английские (Eng)
Режиссер: Майкл Манн

В Ролях:


Аль Пачино (Lt. Vincent Hanna), Роберт Де Ниро (Neil McCauley), Вэл Килмер (Chris Shiherlis), Том Сайзмор (Michael Cheritto), Эми Бреннеман (Eady), Джон Войт (Nate), Дайан Венора (Justine), Эшли Джадд (Charlene Shiherlis), Майкелти Уильямсон (Sergeant Drucker), Уэс Стьюди (Casals), Тед Левайн (Bosko), Деннис Хейсбёрт (Donald Breedan)

Описание:
Нил МакКоли - преступник. Один из лучших, если можно так сказать о преступнике, в Лос-Анджелесе, а быть может, и во всей Америке. И работать с ним вместе почитают за честь супер-профессионалы криминального мира. Но против него выступает Винсент Ханна. Детектив. Один из лучших в Лос-Анджелесе, а быть может, и во всей Америке. У Винсента и Нила очень много общего. Вероятно, общего у них даже больше, чем отличий. Однако они все же стоят по разные стороны закона. Две сильнейшие команды сошлись друг против друга. Только речь идет не о спортивном состязании, а о схватке не на жизнь, а на смерть...

  • Мировая премьера:15 декабря 1995

    ТЕХ.ДАННЫЕ:
    Качество: BDRip 1080p / 60 fps
    Формат: MKV
    Видео кодек: AVC
    Аудио кодек: AC3, DTS
    Видео: AVC, 1920x800 (2.40:1), 8988 kbps, 59,940 fps, 0,098 bpp
    Аудио №1: русский / AC3 / 5.1 / 48 kHz / 384 kbps / 16 bit |MVO, Twister|
    Аудио №2: русский / AC3 / 5.1 / 48 kHz / 384 kbps / 16 bit |MVO, Gemini|
    Аудио №3: русский / DTS / 5.1 / 48 kHz / 1510 kbps / 16 bit |MVO, Карусель|
    Аудио №4: русский / DTS / 5.1 / 48 kHz / 1510 kbps / 16 bit |AVO, Д.Пучков|
    Аудио №5: русский / DTS / 5.1 / 48 kHz / 1510 kbps / 16 bit |AVO, А.Гаврилов|
    Аудио №6: английский / DTS / 5.1 / 48 kHz / 1510 kbps / 16 bit
    Навигация по главам: есть



    Код:

    General
    Unique ID                                : 227183724209746697107517063662291091399 (0xAAE9FE654E28604499044F7EF78B7FC7)
    Complete name                            : H:\torrent\film\Heat\Heat.1995.BDRip.1080p.60fps-R.G.HD-Films.mkv
    Format                                   : Matroska
    Format version                           : Version 4 / Version 2
    File size                                : 19.2 GiB
    Duration                                 : 2h 50mn
    Overall bit rate                         : 16.1 Mbps
    Movie name                               : Heat (1995) BDRip 1080p / 60fps - R.G. HD-Films
    Encoded date                             : UTC 2015-07-08 13:31:01
    Writing application                      : mkvmerge v7.9.0 ('Birds') 64bit
    Writing library                          : libebml v1.3.1 + libmatroska v1.4.2
    Attachment                               : Yes

    Video
    ID                                       : 1
    Format                                   : AVC
    Format/Info                              : Advanced Video Codec
    Format profile                           : High@L4.1
    Format settings, CABAC                   : Yes
    Format settings, ReFrames                : 5 frames
    Codec ID                                 : V_MPEG4/ISO/AVC
    Duration                                 : 2h 50mn
    Bit rate                                 : 8 989 Kbps
    Width                                    : 1 920 pixels
    Height                                   : 800 pixels
    Display aspect ratio                     : 2.40:1
    Frame rate                               : 59.940 fps
    Color space                              : YUV
    Chroma subsampling                       : 4:2:0
    Bit depth                                : 8 bits
    Scan type                                : Progressive
    Bits/(Pixel*Frame)                       : 0.098
    Stream size                              : 10.7 GiB (56%)
    Writing library                          : x264 core 146 r2538 121396c
    Encoding settings                        : cabac=1 / ref=5 / deblock=1:0:0 / analyse=0x3:0x113 / me=umh / subme=11 / psy=1 / psy_rd=1.00:0.10 / mixed_ref=1 / me_range=32 / chroma_me=1 / trellis=2 / 8x8dct=1 / cqm=0 / deadzone=21,11 / fast_pskip=0 / chroma_qp_offset=-3 / threads=6 / lookahead_threads=2 / sliced_threads=0 / nr=0 / decimate=1 / interlaced=0 / bluray_compat=0 / constrained_intra=0 / bframes=7 / b_pyramid=2 / b_adapt=2 / b_bias=0 / direct=1 / weightb=1 / open_gop=0 / weightp=2 / keyint=250 / keyint_min=25 / scenecut=40 / intra_refresh=0 / rc=crf / mbtree=0 / crf=17.0 / qcomp=0.60 / qpmin=0 / qpmax=69 / qpstep=4 / ip_ratio=1.40 / pb_ratio=1.30 / aq=1:1.00
    Language                                 : English
    Default                                  : Yes
    Forced                                   : No

    Audio #1
    ID                                       : 2
    Format                                   : AC-3
    Format/Info                              : Audio Coding 3
    Mode extension                           : CM (complete main)
    Codec ID                                 : A_AC3
    Duration                                 : 2h 50mn
    Bit rate mode                            : Constant
    Bit rate                                 : 384 Kbps
    Channel(s)                               : 6 channels
    Channel positions                        : Front: L C R, Side: L R, LFE
    Sampling rate                            : 48.0 KHz
    Bit depth                                : 16 bits
    Compression mode                         : Lossy
    Stream size                              : 468 MiB (2%)
    Title                                    : MVO Twister
    Language                                 : Russian
    Default                                  : Yes
    Forced                                   : No

    Audio #2
    ID                                       : 3
    Format                                   : AC-3
    Format/Info                              : Audio Coding 3
    Mode extension                           : CM (complete main)
    Codec ID                                 : A_AC3
    Duration                                 : 2h 50mn
    Bit rate mode                            : Constant
    Bit rate                                 : 384 Kbps
    Channel(s)                               : 6 channels
    Channel positions                        : Front: L C R, Side: L R, LFE
    Sampling rate                            : 48.0 KHz
    Bit depth                                : 16 bits
    Compression mode                         : Lossy
    Stream size                              : 468 MiB (2%)
    Title                                    : MVO Gemini
    Language                                 : Russian
    Default                                  : No
    Forced                                   : No

    Audio #3
    ID                                       : 4
    Format                                   : DTS
    Format/Info                              : Digital Theater Systems
    Codec ID                                 : A_DTS
    Duration                                 : 2h 50mn
    Bit rate mode                            : Constant
    Bit rate                                 : 1 510 Kbps
    Channel(s)                               : 6 channels
    Channel positions                        : Front: L C R, Side: L R, LFE
    Sampling rate                            : 48.0 KHz
    Bit depth                                : 16 bits
    Compression mode                         : Lossy
    Stream size                              : 1.80 GiB (9%)
    Title                                    : MVO Карусель
    Language                                 : Russian
    Default                                  : No
    Forced                                   : No

    Audio #4
    ID                                       : 5
    Format                                   : DTS
    Format/Info                              : Digital Theater Systems
    Codec ID                                 : A_DTS
    Duration                                 : 2h 50mn
    Bit rate mode                            : Constant
    Bit rate                                 : 1 510 Kbps
    Channel(s)                               : 6 channels
    Channel positions                        : Front: L C R, Side: L R, LFE
    Sampling rate                            : 48.0 KHz
    Bit depth                                : 16 bits
    Compression mode                         : Lossy
    Stream size                              : 1.80 GiB (9%)
    Title                                    : AVO Пучков (Гоблин)
    Language                                 : Russian
    Default                                  : No
    Forced                                   : No

    Audio #5
    ID                                       : 6
    Format                                   : DTS
    Format/Info                              : Digital Theater Systems
    Codec ID                                 : A_DTS
    Duration                                 : 2h 50mn
    Bit rate mode                            : Constant
    Bit rate                                 : 1 510 Kbps
    Channel(s)                               : 6 channels
    Channel positions                        : Front: L C R, Side: L R, LFE
    Sampling rate                            : 48.0 KHz
    Bit depth                                : 16 bits
    Compression mode                         : Lossy
    Stream size                              : 1.80 GiB (9%)
    Title                                    : AVO Гаврилов
    Language                                 : Russian
    Default                                  : No
    Forced                                   : No

    Audio #6
    ID                                       : 7
    Format                                   : DTS
    Format/Info                              : Digital Theater Systems
    Codec ID                                 : A_DTS
    Duration                                 : 2h 50mn
    Bit rate mode                            : Constant
    Bit rate                                 : 1 510 Kbps
    Channel(s)                               : 6 channels
    Channel positions                        : Front: L C R, Side: L R, LFE
    Sampling rate                            : 48.0 KHz
    Bit depth                                : 16 bits
    Compression mode                         : Lossy
    Stream size                              : 1.80 GiB (9%)
    Title                                    : Original
    Language                                 : English
    Default                                  : No
    Forced                                   : No

    Text #1
    ID                                       : 8
    Format                                   : UTF-8
    Codec ID                                 : S_TEXT/UTF8
    Codec ID/Info                            : UTF-8 Plain Text
    Title                                    : Twister
    Language                                 : Russian
    Default                                  : No
    Forced                                   : No

    Text #2
    ID                                       : 9
    Format                                   : UTF-8
    Codec ID                                 : S_TEXT/UTF8
    Codec ID/Info                            : UTF-8 Plain Text
    Title                                    : Gemini
    Language                                 : Russian
    Default                                  : No
    Forced                                   : No

    Text #3
    ID                                       : 10
    Format                                   : UTF-8
    Codec ID                                 : S_TEXT/UTF8
    Codec ID/Info                            : UTF-8 Plain Text
    Title                                    : Eng
    Language                                 : English
    Default                                  : No
    Forced                                   : No

    Menu
    00:00:00.000                             : en:Tools for the Job (Credits)
    00:04:22.512                             : en:Attention in the Morning
    00:07:04.007                             : en:Countdown to a Heist
    00:10:07.607                             : en:Quick on the Trigger
    00:13:35.231                             : en:Neil and Nate
    00:14:52.225                             : en:Vincent in Charge
    00:18:21.058                             : en:Rid of Waingro
    00:21:03.512                             : en:Three Households Under Strain
    00:25:23.939                             : en:A Connection: Neil and Eady
    00:31:59.501                             : en:Albert Irks Vincent's Ire
    00:34:56.303                             : en:Deals in the Works
    00:37:55.273                             : en:No Attachments
    00:40:48.029                             : en:Rules of the Games
    00:44:34.088                             : en:A Lead on Slick
    00:49:21.917                             : en:Shootout at the Drive-in
    00:52:02.119                             : en:Dead Man Talking
    00:52:56.924                             : en:An Evening Out
    00:56:03.569                             : en:The Grim Reaper Visits
    00:58:10.320                             : en:A Mother's Pain
    01:01:41.698                             : en:The Mess Vincent Leaves
    01:04:29.741                             : en:Couples Seeking Comfort
    01:08:27.186                             : en:Walking Away Under Watch
    01:14:49.860                             : en:Everybody's In
    01:17:15.422                             : en:In Each Other's Sights
    01:21:57.579                             : en:A Hit-and-Miss Guy; Going Out
    01:25:22.367                             : en:Invitation to Coffee
    01:28:50.617                             : en:A Couple of Regular Fellows
    01:35:08.536                             : en:Where These People Are
    01:36:59.272                             : en:New Afflictions
    01:41:19.282                             : en:The Heist Begins
    01:45:05.382                             : en:Tipped Off
    01:46:39.059                             : en:Under Fire
    01:52:35.082                             : en:Cheritto's Last Stand
    01:53:56.079                             : en:Fallout
    01:56:49.252                             : en:The Source of the Leak
    01:59:18.943                             : en:Revenge
    02:02:51.030                             : en:Charlene's Choice
    02:07:24.220                             : en:It Will Be Different
    02:10:05.589                             : en:A Means Toward Closure
    02:12:08.629                             : en:No Point
    02:14:45.452                             : en:With a Wave
    02:19:26.316                             : en:TV to Go
    02:21:44.246                             : en:Not Letting Go of Lauren
    02:25:33.350                             : en:Home Free... Nearly
    02:28:01.998                             : en:Closing In
    02:30:45.411                             : en:"I'm Not What You Want, Justine"
    02:33:03.633                             : en:Looking at Death
    02:35:05.796                             : en:One Last Look
    02:38:20.449                             : en:Runaway Cat-and-Mouse
    02:40:25.658                             : en:In the Light
    02:43:51.321                             : en:Hand in Hand
    02:45:47.938                             : en:End Credits

    Скриншоты:


    © Оформление by Ворон
    pb.wtf



  • Скачать Схватка через торрент http://s017.radikal.ru/i443/1507/25/839c6c575f1b.png Скачать фильм Схватка через торрент бесплантно в хорошем качестве Описание: Нил МакКоли - преступник. Один из лучших, если можно так сказать о преступнике, в Лос-Анджелесе, а быть может, и во всей Америке. ... 10 10 17
    Info! Золотая раздача, скачанное не засчитывается.
    Торрент: Зарегистрирован [2015-07-08 14:22] · скачан: 89 раз
    Статус: √ проверено
    Размер: 19.2 GB
    Как cкачать? Как скачать Схватка через торрент | UTorrent

    28-11-2019 20:33  

    Отключить всю рекламу на сайте

    08-07-2015 15:24 Схватка Скачать торрент  

    good film! pb.wtf



    09-07-2015 09:48 Схватка Скачать торрент  

    Культовый фильм Великих актёров. Спасибо-Lexx-.pb.wtf
    K-Lexx- писал(а):

    И Вам спасибо, за "золото" =)



    09-07-2015 18:05 Схватка Скачать торрент  

    Качество супер! Большое спасибо ! По больше рипов 1080 .! 720 уже надоели на раздачах .Экономия места на хардах , - экономия на качестве. Еще раз СПАСИБО !pb.wtf



    17-06-2020 18:32 Схватка Скачать торрент  

    Ребята встаньте на раздачу!pb.wtf



    18-06-2020 13:24 Схватка Скачать торрент  

    Ребята встаньте на раздачу! Пожалуйста!!!pb.wtf



    17-07-2020 09:19 Схватка Скачать торрент  

    Ребята встаньте на раздачу! Пожалуйста!!!pb.wtf



      Дорогой пользователь! Огромная просьба, поблагодарите релизера, оцените раздачу и оставьте свои комментарий, если Вы скачали Схватка через торрент бесплатно! Внесите свою лепту в развитие PiratBit!
      Комментировать посты могут только пользователи прошедшие не сложную регистрацию
      Показать сообщения:    

      Схватка через торрент
      Скачать бесплатно Схватка
      Схватка скачать торрент
      Схватка смотреть онлайн
      Cкачать фильм Схватка бесплатно
      Схватка скачать торрент в хорошем качестве
      Схватка смотреть онлайн бесплатно в хорошем качестве


      Вы не можете начинать темы
      Вы не можете отвечать на сообщения
      Вы не можете редактировать свои сообщения
      Вы не можете удалять свои сообщения
      Вы не можете голосовать в опросах
      Вы не можете прикреплять файлы к сообщениям
      Вы можете скачивать файлы