Ссылка на приватное зеркало нашего сайта всего за 1$. Внимание количество ограничено!!!

2 сезон

iTunes

1 сезон

1

2 сезон

2 сезон

iTunes

1 сезон

RePack

30

Ultimate

ВАЖНО

ИГРА 18+

pack

RePack

MK11
pack

Забери бонус

RePack

jed

!!Акция!!

Alien_Rage

RePack

fifa19

RePack

Assassins Creed: Odyssey

RePack

NEED FOR SPEED™ PAYBACK

4 сезон

9 сезон

Бесстыжие 9 сезон

Все сериалы

все сериалы на PB.wtf

RePack

FAR CRY 5
  

Ответный удар: Наследие / Strike Back: Legacy / Cезон: 5 / Серии 1-10 из 10 [2015 г., боевик, триллер, драма, HDTVRip 720p] MVO (BaibaKo) pb.wtf

Ответный удар: Наследие через торрент pb.wtf

Размер: 15.49 GB | Добавлен: 5 лет 2 мес. назад | Торрент скачан:22 раза
Скачать  

09-07-2015 13:11 Ответный удар: Наследие Скачать торрент  

Ответный удар: Наследие / Strike Back: Legacy


Год выпуска: 2015
Страна: Великобритания
Жанр: боевик, триллер, драма
Продолжительность: ~ 00:44:33
Перевод: Профессиональный многоголосый [BaibaKo]
Режиссер: Дэниэл Персивал, Пол Вильшурст, Билл Иглз
В ролях:

Филип Уинчестер (Sgt. Michael Stonebridge), Салливан Степлтон (Sgt. Damien Scott), Мишель Лукес (Sgt. Julia Richmond), Рашан Стоун (Maj. Oliver Sinclair), Рона Митра (Maj. Rachel Dalton), Робсон Грин (Lt. Col. Philip Locke), Милона Джексон (Kim Martinez), Аманда Милинг (Col. Eleanor Grant), Лайам Гэрриган (Sgt. Liam Baxter), Джими Мистри (Latif), Чарльз Дэнс (Conrad Knox), Зубин Варла (Leo Kamali)

Описание:
Описание: 20-й отдел направляется в Бангкок для спасения Хлои Фостер, похищенной дочери британского посла. В посольстве заложена бомба. У Скотта и Стоунбриджа остаётся пятнадцать минут...
Рейтинг:


Качество: HDTVRip 720p
Формат: MKV
Видео кодек: AVC
Аудио кодек: AC3
Видео: AVC, 1280x720 (16:9), 4520 kbps, 25 fps, 0,196 bpp
Аудио №1: русский / AC3 / 5.1 / 48 kHz / 384 kbps / 16 bit
Аудио №2: английский / AC3 / 5.1 / 48 kHz / 384 kbps / 16 bit

Код:

Формат                                   : Matroska
Версия формата                           : Version 4 / Version 2
Размер файла                             : 1,68 Гбайт
Продолжительность                        : 44 м.
Общий поток                              : 5396 Кбит/сек
Дата кодирования                         : UTC 2015-06-06 04:20:44
Программа кодирования                    : mkvmerge v7.3.0 ('Nouages') 64bit built on Oct 22 2014 18:53:34
Библиотека кодирования                   : libebml v1.3.0 + libmatroska v1.4.1
_STATISTICS_WRITING_APP                  : mkvmerge v7.3.0 ('Nouages') 64bit built on Oct 22 2014 18:53:34
_STATISTICS_WRITING_DATE_UTC             : 2015-06-06 04:20:44
_STATISTICS_TAGS                         : BPS DURATION NUMBER_OF_FRAMES NUMBER_OF_BYTES
DURATION                                 : 00:44:33.792000000
NUMBER_OF_FRAMES                         : 83556
NUMBER_OF_BYTES                          : 128342016

Видео
Идентификатор                            : 1
Формат                                   : AVC
Формат/Информация                        : Advanced Video Codec
Профиль формата                          : High@L4.1
Параметр CABAC формата                   : Да
Параметр ReFrames формата                : 5 кадров
Идентификатор кодека                     : V_MPEG4/ISO/AVC
Продолжительность                        : 44 м.
Битрейт                                  : 4521 Кбит/сек
Ширина                                   : 1280 пикселей
Высота                                   : 720 пикселей
Соотношение сторон                       : 16:9
Режим частоты кадров                     : Постоянный
Частота кадров                           : 25,000 кадров/сек
Цветовое пространство                    : YUV
Субдискретизация насыщенности            : 4:2:0
Битовая глубина                          : 8 бит
Тип развёртки                            : Прогрессивная
Бит/(Пиксели*Кадры)                      : 0.196
Размер потока                            : 1,41 Гбайт (84%)
Библиотека кодирования                   : x264 core 146 r2538 121396c
Настройки программы                      : cabac=1 / ref=5 / deblock=1:0:0 / analyse=0x3:0x113 / me=umh / subme=8 / psy=1 / psy_rd=1.00:0.00 / mixed_ref=1 / me_range=16 / chroma_me=1 / trellis=1 / 8x8dct=1 / cqm=0 / deadzone=21,11 / fast_pskip=1 / chroma_qp_offset=-2 / threads=12 / lookahead_threads=2 / sliced_threads=0 / nr=0 / decimate=1 / interlaced=0 / bluray_compat=0 / constrained_intra=0 / bframes=3 / b_pyramid=2 / b_adapt=2 / b_bias=0 / direct=3 / weightb=1 / open_gop=0 / weightp=2 / keyint=250 / keyint_min=25 / scenecut=40 / intra_refresh=0 / rc_lookahead=50 / rc=crf / mbtree=1 / crf=18.0 / qcomp=0.60 / qpmin=0 / qpmax=69 / qpstep=4 / ip_ratio=1.40 / aq=1:1.00
Default                                  : Нет
Forced                                   : Нет
colour_range                             : Limited
Коэффициенты матрицы                     : BT.709

Аудио #1
Идентификатор                            : 2
Формат                                   : AC-3
Формат/Информация                        : Audio Coding 3
Расширение режима                        : CM (complete main)
Параметр Endianness формата              : Big
Идентификатор кодека                     : A_AC3
Продолжительность                        : 44 м.
Вид битрейта                             : Постоянный
Битрейт                                  : 384 Кбит/сек
Каналы                                   : 6 каналов
Расположение каналов                     : Front: L C R, Side: L R, LFE
Частота                                  : 48,0 КГц
Битовая глубина                          : 16 бит
Метод сжатия                             : С потерями
Задержка видео                           : 24 мс.
Размер потока                            : 122 Мбайт (7%)
Язык                                     : Russian
Default                                  : Да
Forced                                   : Нет

Аудио #2
Идентификатор                            : 3
Формат                                   : AC-3
Формат/Информация                        : Audio Coding 3
Расширение режима                        : CM (complete main)
Параметр Endianness формата              : Big
Идентификатор кодека                     : A_AC3
Продолжительность                        : 44 м.
Вид битрейта                             : Постоянный
Битрейт                                  : 384 Кбит/сек
Каналы                                   : 6 каналов
Расположение каналов                     : Front: L C R, Side: L R, LFE
Частота                                  : 48,0 КГц
Битовая глубина                          : 16 бит
Метод сжатия                             : С потерями
Размер потока                            : 122 Мбайт (7%)
Язык                                     : English
Default                                  : Нет
Forced                                   : Нет

Внимание! Раздача ведётся путём добавления новых серий; при каждом добавлении создаётся новый торрент-файл. Чтобы начать дозакачку новой серии, пользователям необходимо сделать следующее:
(1) остановить скачивание,
(2) удалить старый торрент-файл у себя из клиента (старые серии удалять не надо),
(3) скачать новый торрент-файл и запустить его у себя в клиенте вместо старого, при этом указать клиенту путь в старую папку куда и должно происходить скачивание новых серий.
Ваш клиент при этом должен произвести хеширование (проверку) старой папки (если не производит сам - помогите ему сделать это), и будет докачивать только те серии которых у вас ещё нет. Старые серии при этом не удаляются, а продолжают раздаваться!
Eсли вы уже удалили старые серии, то предотвратить повторную закачку старых серий можно, отжав галочку в соответствующих местах при запуске нового торрента.
скриншот   скриншот   скриншот  
pb.wtf



Скачать Ответный удар: Наследие через торрент http://i1.imageban.ru/out/2015/07/09/9e2deabbcb6580c2125f688831747065.jpg Скачать фильм Ответный удар: Наследие через торрент бесплантно в хорошем качестве Описание: Описание: 20-й отдел направляется в Бангкок для спасения Хлои Фостер, похищенной дочери британского посла. В посольстве заложена ... 9.9 10 14
Info! Золотая раздача, скачанное не засчитывается.
Торрент: Зарегистрирован [2015-09-07 16:21] · скачан: 22 раз
Статус: √ проверено
Размер: 15.49 GB
Как cкачать? Как скачать Ответный удар: Наследие через торрент | qTorrent

% Раздел Тема Автор DL S | L
Зарубежные сериалы [ 5.79 GB ] Ответный удар: Наследие / Strike Back: Legacy / Cезон: 5 / Серии 1-10 из 10 [2015 HDTVRip] MVO PROCTOLOG Скачать
1 | 0


Последний раз редактировалось: 10oN (2015-09-07 16:21), всего редактировалось 6 раз(а)

28-11-2019 20:33  

Отключить всю рекламу на сайте

09-07-2015 15:55 Ответный удар: Наследие Скачать торрент  

Неожиданно :declare:pb.wtf



09-07-2015 17:15 Ответный удар: Наследие Скачать торрент  

отличный сериал с каждым сезоном все лучшеpb.wtf



30-07-2015 07:55 Ответный удар: Наследие Скачать торрент  

Добавлена 6-я серия!pb.wtf



05-08-2015 14:38 Ответный удар: Наследие Скачать торрент  

Groyl писал(а):

отличный сериал с каждым сезоном все лучше

С каждым сезоном одно и то же))) ничего не меняется,бегают,стреляют,супер янки неубиваемые,бредpb.wtf



26-08-2015 14:20 Ответный удар: Наследие Скачать торрент  

Добавлены серии: 7,8! ПриПро!pb.wtf



07-09-2015 16:26 Ответный удар: Наследие Скачать торрент  

Добавлены серии: 9,10! ПриПро!pb.wtf



    Дорогой пользователь! Огромная просьба, поблагодарите релизера, оцените раздачу и оставьте свои комментарий, если Вы скачали Ответный удар: Наследие через торрент бесплатно! Внесите свою лепту в развитие PiratBit!
    Комментировать посты могут только пользователи прошедшие не сложную регистрацию
    Показать сообщения:    

    Ответный удар: Наследие через торрент
    Скачать бесплатно Ответный удар: Наследие
    Ответный удар: Наследие скачать торрент
    Ответный удар: Наследие смотреть онлайн
    Cкачать фильм Ответный удар: Наследие бесплатно
    Ответный удар: Наследие скачать торрент в хорошем качестве
    Ответный удар: Наследие смотреть онлайн бесплатно в хорошем качестве


    Вы не можете начинать темы
    Вы не можете отвечать на сообщения
    Вы не можете редактировать свои сообщения
    Вы не можете удалять свои сообщения
    Вы не можете голосовать в опросах
    Вы не можете прикреплять файлы к сообщениям
    Вы можете скачивать файлы