Ссылка на приватное зеркало всего за 1$. Внимание количество ограничено!!!

OK

1+1

iTunes

мы

OK

1

WEB-DLRip

Джокер

Пифагор

Ведьмак / The Witcher сериал

iTunes

ПШазам

ОК

Оно 2

iTunes

30
pack

Вам бонус

ВАЖНО

!!Акция!!

Alien_RageХит недели

RePack

Resident Evil 21

ИГРА 18+

pack

RePack

jed

RePack

fifa19

RePack

Assassins Creed: Odyssey

RePack

NEED FOR SPEED™ PAYBACK

4 сезон

9 сезон

Бесстыжие 9 сезон

Все сериалы

все сериалы на PB.wtf

RePack

FAR CRY 5
  

Последние рыцари / Last Knights (Казуаки Кирия / Kazuaki Kiriya) [2015, Боевик, приключения, BDRip-AVC] DUB Лицензия pb.wtf

Последние рыцари через торрент pb.wtf

Размер: 1.46 GB | Добавлен: 4 года 6 мес. назад | Торрент скачан:1239 раз
Скачать  

07-06-2015 03:04 Последние рыцари Скачать торрент  

Последние рыцари / Last Knights
Год выпуска: 2015
Страна: Чехия, Корея Южная / Czech Anglo Productions, Luka Productions
Жанр: Боевик, приключения
Продолжительность: 01:49:53
Перевод: Дубляж [BD RUS]
Субтитры: Английские (Full + SDH + SDH-Colored)

Режиссер: Казуаки Кирия / Kazuaki Kiriya

В ролях: Клайв Оуэн, Морган Фримен, Клифф Кёртис, Цуёси Ихара, Сон Ги Ан, Си Ён Пак, Аксель Хенни, Дэниэл Адегбойега, Шоре Агдашлу, Джеймс Бэбсон, Павел Бездек, Дэниэл Флейшер-Браун, Пейман Моаади, Джорджо Капуто, Брайан Каспе, Роуз Кэтон, Кевин Кларк, Клара Иссова, Айелет Зурер

Описание: Средневековье, междоусобные распри раздирают королевство на мелкие анклавы, их правители наращивают собственные военные силы. Лишь истинный благородный воин — Король Барток — видит силу и будущее в единстве. При поддержке своих преданных и закаленных в сражениях рыцарей, он способен объединить земли. Но коварные враги уничтожают короля. И тогда его верные рыцари во имя высшей справедливости и отмщения чести своего господина выступают на штурм самой защищенной крепости королевства. Они готовятся взять реванш ценою собственных жизней.



Качество: BDRip-AVC
Формат: MKV
Видео кодек: H.264
Аудио кодек: AC3
Видео: 1008x422 (2,40:1), 25,000 fps, 1455 kbps, 0.137 bit/pixel
Аудио: 48 kHz, AC3 Dolby Digital, 3/2 (L,C,R,l,r) + LFE ch, 448.00 kbps

Релиз группы:
Автор рипа: potroks

Общее
Уникальный идентификатор : 180079434190772823908931604414755160963 (0x877A09977A8E199AB0C6D5E023BAC383)
Полное имя : Posledniye.Rytcari.2015.RUS.BDRip.x264.-HELLYWOOD.mkv
Формат : Matroska
Версия формата : Version 4 / Version 2
Размер файла : 1,46 Гбайт
Продолжительность : 1 ч. 49 м.
Общий поток : 1896 Кбит/сек
Название фильма : Last Knights (2015) - HELLYWOOD
Дата кодирования : UTC 2015-06-07 02:42:26
Программа кодирования : mkvmerge v5.9.0 ('On The Loose') built on Dec 15 2012 16:39:58
Библиотека кодирования : libebml v1.3.0 + libmatroska v1.4.0

Видео
Идентификатор : 1
Формат : AVC
Формат/Информация : Advanced Video Codec
Профиль формата : High@L4.1
Параметр CABAC формата : Да
Параметр ReFrames формата : 11 кадров
Идентификатор кодека : V_MPEG4/ISO/AVC
Продолжительность : 1 ч. 49 м.
Битрейт : 1455 Кбит/сек
Ширина : 1008 пикселей
Высота : 422 пикселя
Соотношение сторон : 2,40:1
Режим частоты кадров : Постоянный
Частота кадров : 25,000 кадров/сек
Цветовое пространство : YUV
Субдискретизация насыщенности : 4:2:0
Битовая глубина : 8 бит
Тип развёртки : Прогрессивная
Бит/(Пиксели*Кадры) : 0.137
Размер потока : 1,08 Гбайт (74%)
Заголовок : potroks
Библиотека кодирования : x264 core 146 r2538 121396c
Настройки программы : cabac=1 / ref=11 / deblock=1:-2:-2 / analyse=0x3:0x113 / me=umh / subme=11 / psy=1 / psy_rd=1.04:0.08 / mixed_ref=1 / me_range=48 / chroma_me=1 / trellis=2 / 8x8dct=1 / cqm=0 / deadzone=21,11 / fast_pskip=0 / chroma_qp_offset=-3 / threads=9 / lookahead_threads=2 / sliced_threads=0 / nr=0 / decimate=1 / interlaced=0 / bluray_compat=0 / constrained_intra=0 / bframes=12 / b_pyramid=2 / b_adapt=2 / b_bias=0 / direct=3 / weightb=1 / open_gop=0 / weightp=2 / keyint=250 / keyint_min=23 / scenecut=40 / intra_refresh=0 / rc_lookahead=60 / rc=2pass / mbtree=0 / bitrate=1455 / ratetol=1.0 / qcomp=0.70 / qpmin=0 / qpmax=69 / qpstep=4 / cplxblur=20.0 / qblur=0.5 / vbv_maxrate=14000 / vbv_bufsize=14000 / nal_hrd=none / filler=0 / ip_ratio=1.35 / pb_ratio=1.25 / aq=1:0.80
Язык : English
Default : Да
Forced : Нет

Аудио
Идентификатор : 2
Формат : AC-3
Формат/Информация : Audio Coding 3
Расширение режима : CM (complete main)
Параметр Endianness формата : Big
Идентификатор кодека : A_AC3
Продолжительность : 1 ч. 49 м.
Вид битрейта : Постоянный
Битрейт : 448 Кбит/сек
Каналы : 6 каналов
Расположение каналов : Front: L C R, Side: L R, LFE
Частота : 48,0 КГц
Битовая глубина : 16 бит
Метод сжатия : С потерями
Размер потока : 352 Мбайт (24%)
Заголовок : Dub | DD 5.1 @ 448 kbps - Blu-Ray RUS
Язык : Russian
Default : Да
Forced : Нет

Текст #1
Идентификатор : 3
Формат : UTF-8
Идентификатор кодека : S_TEXT/UTF8
Идентификатор кодека/Информация : UTF-8 Plain Text
Заголовок : Full
Язык : English
Default : Нет
Forced : Нет

Текст #2
Идентификатор : 4
Формат : UTF-8
Идентификатор кодека : S_TEXT/UTF8
Идентификатор кодека/Информация : UTF-8 Plain Text
Заголовок : SDH
Язык : English
Default : Нет
Forced : Нет

Текст #3
Идентификатор : 5
Формат : UTF-8
Идентификатор кодека : S_TEXT/UTF8
Идентификатор кодека/Информация : UTF-8 Plain Text
Заголовок : SDH-Colored
Язык : English
Default : Нет
Forced : Нет

Меню
00:02:55.000 : en:Chapter1
00:08:02.000 : en:Chapter2
00:13:00.000 : en:Chapter3
00:19:55.000 : en:Chapter4
00:35:36.000 : en:Chapter5
00:41:43.000 : en:Chapter6
00:45:12.000 : en:Chapter7
00:49:00.000 : en:Chapter7
01:02:34.000 : en:Chapter8
01:13:32.000 : en:Chapter9
01:27:49.000 : en:Chapter10
01:34:19.000 : en:Chapter11
01:43:44.000 : en:Chapter12

pb.wtf



Скачать Последние рыцари через торрент http://pic.kartinco.top/images/11/t2lns.jpg Скачать фильм Последние рыцари через торрент бесплантно в хорошем качестве Описание: Средневековье, междоусобные распри раздирают королевство на мелкие анклавы, их правители наращивают собственные военные силы. ... 9.6 10 49
Торрент: Зарегистрирован [2015-07-09 15:07] · скачан: 1 239 раз
Статус: √ проверено
Размер: 1.46 GB
Как cкачать? Как скачать Последние рыцари через торрент | qTorrent

% Раздел Тема Автор DL S | L
Фильмы [HD 720p, 1080p] (Хороший звук DUB, MVO) [ 9.32 GB ] Последние рыцари / Last Knights [2014 BDRip 1080p] DUB Ворон Скачать
1 | 0

28-11-2019 20:33  

Отключить всю рекламу на сайте

07-06-2015 03:47 Последние рыцари Скачать торрент  

рыцарский спецназ рулитpb.wtf



30-07-2015 13:00 Последние рыцари Скачать торрент  

ничё так, НО концовка явно не продумана, тупее не придуматьpb.wtf



18-08-2015 05:35 Последние рыцари Скачать торрент  

Средневековый рыцарь - негр, это круто!!!pb.wtf



    Дорогой пользователь! Огромная просьба, поблагодарите релизера, оцените раздачу и оставьте свои комментарий, если Вы скачали Последние рыцари через торрент бесплатно! Внесите свою лепту в развитие PiratBit!
    Комментировать посты могут только пользователи прошедшие не сложную регистрацию
    Показать сообщения:    

    Последние рыцари через торрент
    Скачать бесплатно Последние рыцари
    Последние рыцари скачать торрент
    Последние рыцари смотреть онлайн
    Cкачать фильм Последние рыцари бесплатно
    Последние рыцари скачать торрент в хорошем качестве
    Последние рыцари смотреть онлайн бесплатно в хорошем качестве


    Вы не можете начинать темы
    Вы не можете отвечать на сообщения
    Вы не можете редактировать свои сообщения
    Вы не можете удалять свои сообщения
    Вы не можете голосовать в опросах
    Вы не можете прикреплять файлы к сообщениям
    Вы можете скачивать файлы