Ссылка на приватное зеркало всего за 1$. Внимание количество ограничено!!!

OK

1+1

iTunes

мы

OK

1

WEB-DLRip

Джокер

Пифагор

Ведьмак / The Witcher сериал

iTunes

ПШазам

ОК

Оно 2

iTunes

30
pack

Вам бонус

ВАЖНО

!!Акция!!

Alien_RageХит недели

RePack

Resident Evil 21

ИГРА 18+

pack

RePack

jed

RePack

fifa19

RePack

Assassins Creed: Odyssey

RePack

NEED FOR SPEED™ PAYBACK

4 сезон

9 сезон

Бесстыжие 9 сезон

Все сериалы

все сериалы на PB.wtf

RePack

FAR CRY 5
  

Номер 44 / Child 44 (Даниэль Эспиноса ) [2015, триллер, драма, WEB-DLRip, Дубляж - Лицензия / iTunes] pb.wtf

Номер 44 через торрент pb.wtf

Размер: 1.37 GB | Добавлен: 4 года 6 мес. назад | Торрент скачан:3560 раз
Скачать  

09-07-2015 20:20 Номер 44 Скачать торрент  



Номер 44 / Child 44

Год выпуска: 2015
Страна: США, Великобритания, Чехия, Румыния
Жанр: триллер, драма
Продолжительность: 02:11:30
Перевод: Дубляж - [Лицензия / iTunes]
Режиссер: Даниэль Эспиноса
В ролях: Том Харди (Leo Demidov), Гари Олдман (General Mikhail Nesterov), Нуми Рапас (Raisa Demidov), Юэль Киннаман (Vasili), Пэдди Консидайн (Vladimir Malevich), Джейсон Кларк (Anatoly Tarasovich Brodsky), Венсан Кассель (Major Kuzmin), Ксавьер Аткинс (Young Leo Demidov), Марк Льюис Джонс (Tortoise), Фарес Фарес (Alexei Andreyev), Карел Добрей (Photographer), Агнешка Гроховска (Nina Andreyeva)
Описание:
Действие фильма развернется в СССР времен Иосифа Сталина. Главный герой - дискредитированный офицер советской разведки Лев Демидов. Он расследует серию детских убийств, но его деятельность вызывает подозрение у параноидального советского правительства.
Рейтинг:

MPAA: R - Лицам до 17 лет обязательно присутствие взрослого
Качество: WEB-DLRip
Формат: AVI
Видео кодек: XviD
Аудио кодек: AC3
Видео: XviD, 720x400 (16:9), 1092 kbps, 25 fps, 0,144 bpp
Аудио: AC3 / 5.1 / 48 kHz / 384 kbps / 16 bit

Код:

General
Complete name                            : D:\Торенты\Child.44.2015.WEB-DLRip.1400MB-C!v.avi
Format                                   : AVI
Format/Info                              : Audio Video Interleave
File size                                : 1.37 GiB
Duration                                 : 2h 11mn
Overall bit rate                         : 1 486 Kbps
Writing application                      : VirtualDubMod 1.5.10.2 (build 2540/release)
Writing library                          : VirtualDubMod build 2540/release

Video
ID                                       : 0
Format                                   : MPEG-4 Visual
Format profile                           : Advanced Simple@L5
Format settings, BVOP                    : 2
Format settings, QPel                    : No
Format settings, GMC                     : No warppoints
Format settings, Matrix                  : Default (MPEG)
Codec ID                                 : XVID
Codec ID/Hint                            : XviD
Duration                                 : 2h 11mn
Bit rate                                 : 1092 Kbps
Width                                    : 720 pixels
Height                                   : 400 pixels
Display aspect ratio                     : 16:9
Frame rate                               : 25.000 fps
Color space                              : YUV
Chroma subsampling                       : 4:2:0
Bit depth                                : 8 bits
Scan type                                : Progressive
Compression mode                         : Lossy
Bits/(Pixel*Frame)                       : 0.144
Stream size                              : 973 MiB (70%)
Writing library                          : XviD 1.2.1 (UTC 2008-12-04)

Audio
ID                                       : 1
Format                                   : AC-3
Format/Info                              : Audio Coding 3
Mode extension                           : CM (complete main)
Codec ID                                 : 2000
Duration                                 : 2h 11mn
Bit rate mode                            : Constant
Bit rate                                 : 384 Kbps
Channel(s)                               : 6 channels
Channel positions                        : Front: L C R, Side: L R, LFE
Sampling rate                            : 48.0 KHz
Bit depth                                : 16 bits
Compression mode                         : Lossy
Stream size                              : 361 MiB (26%)
Alignment                                : Split accross interleaves

pb.wtf



Скачать Номер 44 через торрент http://s019.radikal.ru/i635/1507/f8/04094394e7dd.png Скачать фильм Номер 44 через торрент бесплантно в хорошем качестве Описание: Действие фильма развернется в СССР времен Иосифа Сталина. Главный герой - дискредитированный офицер советской разведки Лев ... 8.4 10 105
Info! Золотая раздача, скачанное не засчитывается.
Торрент: Зарегистрирован [2015-07-09 20:20] · скачан: 3 560 раз
Статус: √ проверено
Размер: 1.37 GB
Как cкачать? Как скачать Номер 44 через торрент | qTorrent

% Раздел Тема Автор DL S | L
Фильмы с украинским озвучиванием [ 1.91 GB ] Номер 44 / Child 44 [2015 BDRip-AVC] [Ukr Dub] killermax2013 Скачать
1 | 0
Фильмы 2015 [DVDrip, WEB-DLRip, HDrip] [ 2.18 GB ] Номер 44 / Child 44 [2015 HDRip - / ] 10oN Скачать
1 | 0
T Фильмы [HD 720p, 1080p] (Хороший звук DUB, MVO) [ 6.93 GB ] Номер 44 / Child 44 [2015 Чехия Румыния BDRip 720p - / ] _KaisiK_ Скачать
1 | 0
T Фильмы (Blu-ray, BD-Remux, HDDVD) [ 39.21 GB ] Номер 44 / Child 44 [2014 BDRemux / US Transfer / ] Ворон Скачать
1 | 0
Фильмы 2015 [DVDrip, WEB-DLRip, HDrip] [ 2.91 GB ] Номер 44 / Child 44 [2014 BDRip-AVC] Dub potroks Скачать
1 | 0
Фильмы 2015 [DVDrip, WEB-DLRip, HDrip] [ 1.46 GB ] Номер 44 / Child 44 [2015 BDRip ] Twi7ter Скачать
1 | 0
Фильмы 2015 [DVDrip, WEB-DLRip, HDrip] [ 1.37 GB ] Номер 44 / Child 44 [2015 HDRip - / ] Newton5 Скачать
1 | 0

28-11-2019 20:33  

Отключить всю рекламу на сайте

    Дорогой пользователь! Огромная просьба, поблагодарите релизера, оцените раздачу и оставьте свои комментарий, если Вы скачали Номер 44 через торрент бесплатно! Внесите свою лепту в развитие PiratBit!
    Комментировать посты могут только пользователи прошедшие не сложную регистрацию
    Показать сообщения:    

    Номер 44 через торрент
    Скачать бесплатно Номер 44
    Номер 44 скачать торрент
    Номер 44 смотреть онлайн
    Cкачать фильм Номер 44 бесплатно
    Номер 44 скачать торрент в хорошем качестве
    Номер 44 смотреть онлайн бесплатно в хорошем качестве


    Вы не можете начинать темы
    Вы не можете отвечать на сообщения
    Вы не можете редактировать свои сообщения
    Вы не можете удалять свои сообщения
    Вы не можете голосовать в опросах
    Вы не можете прикреплять файлы к сообщениям
    Вы можете скачивать файлы